<?xml version="1.0" standalone="no"?>
<!DOCTYPE svg PUBLIC "-//W3C//DTD SVG 1.1//EN" "http://www.w3.org/Graphics/SVG/1.1/DTD/svg11.dtd">
<svg xmlns="http://www.w3.org/2000/svg">
<metadata>Generated by Fontastic.me</metadata>
<defs>
<font id="silverstripe" horiz-adv-x="512">
<font-face font-family="silverstripe" units-per-em="512" ascent="480" descent="-32"/>
<missing-glyph horiz-adv-x="512" />

<glyph glyph-name="search" unicode="&#115;" d="M450 117c10-12 11-22 3-32 0 0-24-24-24-24-12-10-24-10-35 0 0 0-97 98-97 98-25-15-52-22-80-22-44 0-82 16-114 49-33 32-49 70-49 114 0 44 16 81 46 112 31 31 68 47 112 47 44 0 82-16 115-49 32-32 49-70 49-114 0-30-8-58-24-83 0 0 98-96 98-96m-348 183c0-30 12-57 35-80 23-23 50-35 80-35 30 0 56 11 77 33 22 21 33 47 33 78 0 30-12 56-35 79-23 23-50 35-80 35-30 0-56-11-77-33-22-21-33-47-33-77"/>
<glyph glyph-name="sync" unicode="&#99;" d="M141 148c0 0 60 60 60 60 0 0 0-150 0-150 0 0-142 9-142 9 0 0 45 44 45 44-39 41-59 91-58 148 1 57 21 107 62 148 34 34 75 53 122 59 0 0 2-52 2-52-34-6-63-21-88-45-30-30-45-67-46-109 0-43 14-80 43-112m170 307c0 0 142-9 142-9 0 0-45-44-45-44 39-41 59-91 58-148-1-57-21-107-62-148-32-33-73-53-122-60 0 0-1 53-1 53 33 6 62 21 87 45 30 30 45 67 46 109 0 43-14 80-43 112 0 0-59-60-59-60 0 0-1 150-1 150"/>
<glyph glyph-name="print" unicode="&#100;" d="M39 346c-9 0-13 4-11 11 1 4 3 6 6 8 0 0 9 2 25 8 16 6 32 12 47 17 16 5 26 7 30 7 0 0 23 0 23 0 0 0 0 77 0 77 0 0 194 0 194 0 0 0 0-77 0-77 0 0 24 0 24 0 4 0 14-2 29-7 15-5 31-11 47-17 16-6 25-8 25-8 6-3 8-8 6-14-1-3-4-5-10-5 0 0-435 0-435 0m440-29c7 0 13-3 19-9 6-7 9-14 9-21 0 0 0-89 0-89 0-8-3-15-9-21-6-7-12-10-19-10 0 0-51 0-51 0 0 0 23-128 23-128 0 0-390 0-390 0 0 0 23 128 23 128 0 0-50 0-50 0-7 0-14 3-20 10-6 6-9 13-9 21 0 0 0 89 0 89 0 7 3 14 9 21 6 6 13 9 20 9 0 0 445 0 445 0m-366-227c0 0 286 0 286 0 0 0-35 166-35 166 0 0-216 0-216 0 0 0-35-166-35-166"/>
<glyph glyph-name="list" unicode="&#101;" d="M110 110c0-16-6-28-16-39-11-11-24-16-39-16-15 0-28 5-39 16-11 11-16 23-16 39 0 15 5 28 16 39 11 10 24 16 39 16 15 0 28-6 39-16 10-11 16-24 16-39z m0 146c0-15-6-28-16-39-11-11-24-16-39-16-15 0-28 5-39 16-11 11-16 24-16 39 0 15 5 28 16 39 11 11 24 16 39 16 15 0 28-5 39-16 10-11 16-24 16-39z m402-119l0-55c0-2-1-4-3-6-2-2-4-3-6-3l-348 0c-2 0-4 1-6 3-2 2-3 4-3 6l0 55c0 3 1 5 3 7 2 1 4 2 6 2l348 0c2 0 4-1 6-2 2-2 3-4 3-7z m-402 265c0-15-6-28-16-39-11-10-24-16-39-16-15 0-28 6-39 16-11 11-16 24-16 39 0 16 5 28 16 39 11 11 24 16 39 16 15 0 28-5 39-16 10-11 16-23 16-39z m402-119l0-54c0-3-1-5-3-7-2-2-4-3-6-3l-348 0c-2 0-4 1-6 3-2 2-3 4-3 7l0 54c0 3 1 5 3 7 2 2 4 3 6 3l348 0c2 0 4-1 6-3 2-2 3-4 3-7z m0 147l0-55c0-3-1-5-3-7-2-1-4-2-6-2l-348 0c-2 0-4 1-6 2-2 2-3 4-3 7l0 55c0 2 1 4 3 6 2 2 4 3 6 3l348 0c2 0 4-1 6-3 2-2 3-4 3-6z"/>
<glyph glyph-name="plus-circled" unicode="&#102;" d="M256 471c59 0 110-21 152-63 42-42 63-93 63-152 0-59-21-110-63-152-42-42-93-63-152-63-59 0-110 21-152 63-42 42-63 93-63 152 0 59 21 110 63 152 42 42 93 63 152 63m27-241c0 0 102 0 102 0 0 0 0 53 0 53 0 0-102 0-102 0 0 0 0 103 0 103 0 0-53 0-53 0 0 0 0-103 0-103 0 0-103 0-103 0 0 0 0-53 0-53 0 0 103 0 103 0 0 0 0-103 0-103 0 0 53 0 53 0 0 0 0 103 0 103"/>
<glyph glyph-name="check-mark-2" unicode="&#107;" d="M421 246l0-91c0-22-8-42-25-58-16-16-35-24-58-24l-237 0c-23 0-42 8-59 24-16 16-24 36-24 58l0 238c0 23 8 42 24 58 17 16 36 24 59 24l237 0c12 0 23-2 34-7 3-1 4-3 5-6 0-4 0-6-3-9l-14-14c-2-1-4-2-6-2-1 0-2 0-3 0-4 1-9 2-13 2l-237 0c-13 0-24-5-33-14-9-9-13-19-13-32l0-238c0-12 4-23 13-32 9-9 20-13 33-13l237 0c13 0 24 4 33 13 9 9 13 20 13 32l0 73c0 2 1 5 3 6l18 19c2 1 4 2 6 2 2 0 3 0 4 0 4-2 6-5 6-9z m66 140l-233-233c-5-4-10-6-16-6-7 0-12 2-17 6l-122 123c-5 5-7 10-7 17 0 6 2 11 7 16l31 31c5 5 10 7 16 7 7 0 12-2 17-7l75-75 185 185c4 5 10 7 16 7 6 0 12-2 16-7l32-31c4-5 6-10 6-17 0-6-2-11-6-16z"/>
<glyph glyph-name="book" unicode="&#110;" d="M426 381c6-3 9-8 9-14 0 0 0-288 0-288 0-5-2-9-6-13-4-4-9-6-14-6-16 0-24 7-24 19 0 0 0 267 0 267 0 4-2 7-6 9 0 0-207 111-207 111-11 3-22 2-35-5-15-7-24-15-28-23 0 0 209-116 209-116 6-3 9-8 9-15 0 0 0-281 0-281 0-8-3-13-9-15-2-1-5-2-9-2-4 0-8 1-10 2-3 2-37 24-103 65-66 42-103 64-109 67-9 7-13 12-13 18 0 0-3 268-3 268 0 10 2 18 7 27 10 15 27 29 52 39 25 11 45 12 60 5 0 0 230-119 230-119"/>
<glyph glyph-name="book-open" unicode="&#111;" d="M200 199c0 0 0-35 0-35 0 0-103 41-103 41 0 0 0 35 0 35 0 0 103-41 103-41m0 106c0 0 0-35 0-35 0 0-103 41-103 41 0 0 0 35 0 35 0 0 103-41 103-41m275 177c8-4 11-11 11-21 0 0 0-328 0-328 0-11-5-19-16-23 0 0-204-82-204-82-2-1-4-1-5-1-1 0-1-1-2-1-1 0-2 0-3 0-1 0-2 0-3 0-1 0-1 1-2 1 0 0-5 1-5 1 0 0-204 82-204 82-11 4-16 12-16 23 0 0 0 328 0 328 0 10 3 17 11 21 7 6 15 7 23 3 0 0 196-78 196-78 0 0 196 78 196 78 8 4 16 3 23-3m-245-403c0 0 0 287 0 287 0 0-163 65-163 65 0 0 0-287 0-287 0 0 163-65 163-65m215 65c0 0 0 287 0 287 0 0-163-65-163-65 0 0 0-287 0-287 0 0 163 65 163 65m-30 96c0 0 0-35 0-35 0 0-103-41-103-41 0 0 0 35 0 35 0 0 103 41 103 41m0 106c0 0 0-35 0-35 0 0-103-41-103-41 0 0 0 35 0 35 0 0 103 41 103 41"/>
<glyph glyph-name="plus" unicode="&#106;" d="M418 418c-45 43-102 66-162 66-60 0-117-23-162-66-43-45-66-102-66-162 0-60 23-117 66-162 45-43 102-66 162-66 60 0 117 23 162 66 43 45 66 102 66 162 0 60-23 117-66 162z m-37-287c-34-34-77-51-125-51-48 0-91 17-125 51-34 34-51 77-51 125 0 48 17 91 51 125 34 34 77 51 125 51 48 0 91-17 125-51 34-34 51-77 51-125 0-48-17-91-51-125z m-14 99l-85 0 0-85-52 0 0 85-85 0 0 52 85 0 0 85 52 0 0-85 85 0z"/>
<glyph glyph-name="tree" unicode="&#112;" d="M358 401l0 43c0 17 15 28 29 28l68 0c17 0 29-14 29-28l0-117c0-17-15-28-29-28l-65 0c-17 0-29 14-29 28l0 46-94 0c0-9 0-217 0-217 0-8 6-14 15-14l76 0 0 43c0 17 15 28 29 28l68 0c17 0 29-14 29-28l0-117c0-17-15-28-29-28l-65 0c-17 0-29 14-29 28l0 43-79 0c-26 0-46 20-46 43l0 219-82 0 0-43c0-17-15-28-29-28l-68 0c-17 0-29 14-29 28l0 114c0 17 15 28 29 28l65 0c17 0 29-14 29-28l0-43z"/>
<glyph glyph-name="flow-tree" unicode="&#113;" d="M460 134c24-11 37-31 37-57 0-17-6-32-18-44-12-12-27-18-44-18-17 0-31 6-43 18-12 12-18 27-18 44 0 26 12 46 37 57 0 0 0 59 0 59 0 26-13 39-39 39 0 0-51 0-51 0-16 0-29 2-40 7 0 0 0-105 0-105 24-11 36-31 36-57 0-17-6-32-17-44-12-12-27-18-44-18-17 0-32 6-44 18-11 12-17 27-17 44 0 26 12 46 36 57 0 0 0 105 0 105-10-5-23-7-38-7 0 0-52 0-52 0-11 0-20-3-27-9-6-7-10-12-11-17-1-5-2-9-2-13 0 0 0-59 0-59 25-11 37-31 37-57 0-17-6-32-18-44-12-12-26-18-43-18-17 0-32 6-44 18-12 12-18 27-18 44 0 26 13 46 37 57 0 0 0 59 0 59 0 21 8 41 22 60 15 18 37 28 67 28 0 0 52 0 52 0 25 0 38 8 38 26 0 0 0 72 0 72-24 11-36 30-36 56 0 17 6 32 17 44 12 12 27 18 44 18 17 0 32-6 44-18 11-12 17-27 17-44 0-26-12-45-36-56 0 0 0-72 0-72 0-18 13-26 40-26 0 0 51 0 51 0 29 0 51-10 66-28 14-19 22-39 22-60 0 0 0-59 0-59m-347-57c0 10-4 19-11 25-7 7-16 11-25 11-10 0-18-4-25-11-7-6-10-15-10-25 0-10 3-18 10-25 7-7 15-10 25-10 9 0 18 3 25 10 7 7 11 15 11 25m108 358c0-9 4-18 10-24 7-7 15-11 25-11 10 0 18 4 25 11 7 6 11 15 11 24 0 10-4 19-11 26-7 7-15 10-25 10-10 0-18-3-25-10-6-7-10-16-10-26m71-358c0 10-4 19-11 25-7 7-15 11-25 11-10 0-18-4-25-11-6-6-10-15-10-25 0-10 4-18 10-25 7-7 15-10 25-10 10 0 18 3 25 10 7 7 11 15 11 25m143-35c10 0 18 3 25 10 7 7 11 15 11 25 0 10-4 19-11 25-7 7-15 11-25 11-9 0-18-4-24-11-7-6-11-15-11-25 0-10 4-18 11-25 6-7 15-10 24-10"/>
<glyph glyph-name="info-circled" unicode="&#121;" d="M253 492c65 0 120-22 167-67 46-45 70-100 72-165 0-65-22-121-68-167-45-47-100-71-165-73-65 0-121 22-167 68-47 45-71 100-72 165-1 65 21 121 67 167 46 47 101 71 166 72m27-78c-15 0-26-4-34-13-8-8-12-16-12-25 0-10 2-17 8-23 6-5 14-8 25-8 13 0 24 4 31 11 8 8 12 17 12 28 0 20-10 30-30 30m-62-304c10 0 25 4 43 13 19 9 37 22 54 40 0 0-9 12-9 12-16-12-28-18-37-18-4 0-5 6-2 19 0 0 22 82 22 82 9 33 5 49-11 49-11 0-26-5-46-15-20-10-40-22-59-38 0 0 8-13 8-13 18 11 31 17 38 17 4 0 4-6 0-17 0 0-18-78-18-78-9-36-3-53 17-53"/>
<glyph glyph-name="chart-line" unicode="&#66;" d="M17 222c-14 4-20 13-16 29 3 14 12 20 27 16 0 0 50-12 50-12 0 0-26-41-26-41 0 0-35 8-35 8m455-6c4 4 10 6 16 6 7-1 12-3 16-8 11-11 11-22-1-33 0 0-128-115-128-115-5-4-10-6-16-6-5 0-9 2-14 5 0 0-146 112-146 112 0 0-28 8-28 8 0 0 26 40 26 40 0 0 18-4 18-4 4-1 7-2 8-4 0 0 135-104 135-104 0 0 114 103 114 103m-251 112c0 0-178-280-178-280-4-8-11-12-20-12-4 0-8 2-12 5-5 3-9 8-10 14-1 7 0 12 3 17 0 0 191 300 191 300 3 6 7 9 14 11 6 2 12 1 19-3 0 0 125-80 125-80 0 0 115 166 115 166 4 6 9 9 15 10 6 1 12-1 17-5 13-8 15-18 6-31 0 0-128-185-128-185-9-12-19-14-32-6 0 0-125 79-125 79"/>
<glyph glyph-name="graph-bar" unicode="&#69;" d="M236 204l-73 0c-4 0-7-4-7-8l0-112c0-4 3-8 7-8l73 0c4 0 8 4 8 8l0 112c0 5-4 8-8 8z m113 232l-73 0c-4 0-8-4-8-8l0-344c0-4 4-8 8-8l73 0c4 0 7 4 7 8l0 344c0 4-3 8-7 8z m113-105l-72 0c-5 0-8-3-8-7l0-240c0-4 3-8 8-8l72 0c4 0 8 4 8 8l0 240c0 4-4 7-8 7z m-340 0l-72 0c-4 0-8-3-8-7l0-240c0-4 4-8 8-8l72 0c5 0 8 4 8 8l0 240c0 4-3 7-8 7z"/>
<glyph glyph-name="torsos-all" unicode="&#70;" d="M492 217l-83 40c20 12 33 36 33 63 0 40-28 72-62 72-12 0-23-4-32-11 6-14 9-29 9-46 0-24-7-48-20-67 4-5 9-9 15-12l0 0 53-25c15-8 25-24 25-41l0-70 57 0c7 0 14 7 14 16l0 66c0 7-4 13-9 15z m-330 40c4 3 8 6 12 10-13 19-21 43-21 68 0 17 4 33 10 47-10 6-20 10-31 10-34 0-62-32-62-72 0-28 14-52 34-64l-84-39c-5-2-9-8-9-15l0-66c0-9 7-16 14-16l55 0 0 70c0 17 10 34 26 41z m232-49l-72 34-31 15c14 8 25 21 32 37 5 12 9 26 9 41 0 9-2 17-4 24-9 38-38 65-73 65-34 0-63-26-73-63-2-8-3-17-3-26 0-16 3-31 10-44 7-14 18-27 31-35l-29-13-75-35c-6-3-10-10-10-18l0-82c0-11 7-20 17-20l264 0c10 0 18 9 18 20l0 82c0 8-5 15-11 18z"/>
<glyph glyph-name="torso" unicode="&#72;" d="M410 203l-80 38-34 16c15 9 27 24 35 41 6 14 10 29 10 46 0 9-1 18-4 27-10 41-42 72-81 72-38 0-70-30-81-70-2-9-4-19-4-29 0-18 4-34 11-49 8-16 20-30 35-39l-32-15-83-38c-7-4-12-12-12-21l0-91c0-12 8-22 19-22l294 0c11 0 19 10 19 22l0 91c0 9-4 17-12 21z"/>
<glyph glyph-name="chart-pie" unicode="&#65;" d="M229 471c0 0 0-188 0-188 0 0-188 0-188 0 6 49 27 92 62 127 35 35 77 56 126 61m55 0c53-7 97-31 133-71 36-41 54-88 54-143 0-59-21-110-63-153-42-42-93-63-153-63-55 0-102 18-142 54-41 36-65 80-72 134 0 0 217 0 217 0 7 0 13 3 18 8 5 4 8 10 8 18 0 0 0 216 0 216"/>
<glyph glyph-name="sitemap" unicode="&#67;" d="M512 155l0-91c0-8-3-14-8-19-5-6-12-8-19-8l-92 0c-7 0-14 2-19 8-6 5-8 11-8 19l0 91c0 8 2 15 8 20 5 5 12 8 19 8l28 0 0 55-147 0 0-55 28 0c7 0 14-3 19-8 5-5 8-12 8-20l0-91c0-8-3-14-8-19-5-6-12-8-19-8l-92 0c-7 0-14 2-19 8-5 5-8 11-8 19l0 91c0 8 3 15 8 20 5 5 12 8 19 8l28 0 0 55-147 0 0-55 28 0c7 0 14-3 19-8 6-5 8-12 8-20l0-91c0-8-2-14-8-19-5-6-12-8-19-8l-92 0c-7 0-14 2-19 8-5 5-8 11-8 19l0 91c0 8 3 15 8 20 5 5 12 8 19 8l28 0 0 55c0 10 3 18 11 25 7 8 16 11 25 11l147 0 0 55-28 0c-7 0-14 3-19 8-5 5-8 12-8 20l0 91c0 8 3 14 8 19 5 6 12 8 19 8l92 0c7 0 14-2 19-8 5-5 8-11 8-19l0-91c0-8-3-15-8-20-5-5-12-8-19-8l-28 0 0-55 147 0c9 0 18-3 25-11 8-7 11-15 11-25l0-55 28 0c7 0 14-3 19-8 5-5 8-12 8-20z"/>
<glyph glyph-name="chat" unicode="&#116;" d="M148 200c0 0 180 0 180 0 0 0 1 0 3 1 0 0 2 0 2 0 0 0 0-47 0-47 0-14-5-26-15-36-10-10-22-16-36-16 0 0-128 0-128 0 0 0-77-76-77-76 0 0 0 76 0 76 0 0-26 0-26 0-13 0-25 6-36 16-10 10-15 22-15 36 0 0 0 153 0 153 0 15 5 27 15 37 11 9 23 14 36 14 0 0 97 0 97 0 0 0 0-158 0-158m313 286c14 0 26-5 36-14 10-10 15-22 15-37 0 0 0-153 0-153 0-14-5-26-15-36-10-10-22-16-36-16 0 0-26 0-26 0 0 0 0-76 0-76 0 0-77 76-77 76 0 0-179 0-179 0 0 0 0 205 0 205 0 15 5 27 16 37 10 9 22 14 35 14 0 0 231 0 231 0"/>
<glyph glyph-name="comment" unicode="&#119;" d="M410 435c14 0 26-5 36-15 10-10 15-22 15-36 0 0 0-179 0-179 0-14-5-26-15-36-10-10-22-15-36-15 0 0-103 0-103 0 0 0 0-77 0-77 0 0-102 77-102 77 0 0-103 0-103 0-13 0-25 5-35 15-11 10-16 22-16 36 0 0 0 179 0 179 0 14 5 26 16 36 10 10 22 15 35 15 0 0 308 0 308 0"/>
<glyph glyph-name="logout" unicode="&#122;" d="M283 77c0 0 0 51 0 51 0 0 50 0 50 0 0 0 0-51 0-51 0-14-5-26-15-36-10-10-22-15-36-15 0 0-205 0-205 0-14 0-26 5-36 15-10 10-15 22-15 36 0 0 0 358 0 358 0 15 5 27 15 37 10 9 22 14 36 14 0 0 205 0 205 0 14 0 26-5 36-14 10-10 15-22 15-37 0 0 0-77 0-77 0 0-50 0-50 0 0 0 0 77 0 77 0 0-206 0-206 0 0 0 0-358 0-358 0 0 206 0 206 0m203 167c0 0-101-101-101-101 0 0 0 62 0 62 0 0-230 0-230 0 0 0 0 77 0 77 0 0 230 0 230 0 0 0 0 61 0 61 0 0 101-99 101-99"/>
<glyph glyph-name="cancel-circled" unicode="&#81;" d="M256 471c59 0 110-21 152-63 42-42 63-93 63-152 0-59-21-110-63-152-42-42-93-63-152-63-59 0-110 21-152 63-42 42-63 93-63 152 0 59 21 110 63 152 42 42 93 63 152 63m44-215c0 0 79 79 79 79 0 0-44 44-44 44 0 0-79-78-79-78 0 0-78 78-78 78 0 0-45-44-45-44 0 0 79-79 79-79 0 0-79-78-79-78 0 0 45-44 45-44 0 0 78 78 78 78 0 0 79-78 79-78 0 0 44 44 44 44 0 0-79 78-79 78"/>
<glyph glyph-name="left-open" unicode="&#84;" d="M293 397c4 6 11 9 20 9 8 0 15-3 21-9 13-12 13-26 0-41 0 0-96-100-96-100 0 0 96-99 96-99 13-15 13-29 0-41-6-6-13-8-21-8-8 0-15 2-20 8 0 0-116 121-116 121-6 5-8 11-8 19 0 8 2 15 8 20 70 74 109 114 116 121"/>
<glyph glyph-name="right-open" unicode="&#85;" d="M219 397c0 0 116-121 116-121 5-5 8-12 8-20 0-8-3-14-8-19 0 0-116-121-116-121-5-6-12-8-20-8-9 0-15 2-21 8-12 12-12 26 0 41 0 0 95 99 95 99 0 0-95 100-95 100-12 15-12 29 0 41 6 6 13 9 21 9 9 0 15-3 20-9"/>
<glyph glyph-name="check-mark" unicode="&#71;" d="M477 350c0-7-2-14-8-19l-206-207-39-39c-6-5-12-8-20-8-7 0-14 3-19 8l-142 142c-6 6-8 12-8 20 0 7 2 14 8 19l38 39c6 5 12 8 20 8 7 0 14-3 19-8l84-84 188 188c5 5 12 8 19 8 8 0 14-3 20-8l38-39c6-6 8-12 8-20z"/>
<glyph glyph-name="check-mark-circle" unicode="&#73;" d="M403 302c0 6-1 10-5 13l-26 26c-3 4-8 6-13 6-5 0-9-2-12-6l-117-116-65 64c-3 4-7 6-12 6-5 0-10-2-13-6l-26-25c-4-4-5-8-5-13 0-6 1-10 5-13l103-104c4-3 8-5 13-5 5 0 10 2 13 5l155 155c4 4 5 8 5 13z m72-46c0-40-9-77-29-110-20-34-46-60-80-80-33-20-70-29-110-29-40 0-77 9-110 29-34 20-60 46-80 80-20 33-29 70-29 110 0 40 9 77 29 110 20 34 46 60 80 80 33 20 70 29 110 29 40 0 77-9 110-29 34-20 60-46 80-80 20-33 29-70 29-110z"/>
<glyph glyph-name="back-in-time" unicode="&#88;" d="M288 466c58 0 107-21 148-62 40-40 61-90 61-148 0-58-21-108-61-148-41-41-90-62-148-62-47 0-90 15-129 45 0 0 36 39 36 39 28-20 59-31 93-31 43 0 80 16 110 46 31 31 46 68 46 111 0 44-15 81-46 112-30 30-67 46-110 46-43 0-79-15-109-44-31-30-47-66-48-108 0 0 73 0 73 0 0 0-94-105-94-105 0 0-95 105-95 105 0 0 64 0 64 0 1 57 22 105 63 145 40 39 89 59 146 59m-19-97c0 0 36 0 36 0 0 0 0-105 0-105 0 0 67-66 67-66 0 0-26-26-26-26 0 0-77 77-77 77 0 0 0 120 0 120"/>
<glyph glyph-name="cog" unicode="&#89;" d="M430 256c0-25 14-45 41-62-4-14-10-28-17-42-24 6-47-2-70-23-18-20-24-43-17-70-14-6-28-13-43-18-16 28-39 42-68 42-29 0-52-14-68-42-15 5-29 12-43 18 7 28 1 51-17 70-18 18-42 24-70 17-4 9-10 23-17 42 28 18 42 41 42 68 0 25-14 46-42 63 7 20 13 34 17 42 26-6 49 2 70 23 18 19 24 42 17 70 15 7 29 13 43 17 16-27 39-41 68-41 29 0 52 14 68 41 14-4 28-10 43-17-7-27-1-50 17-70 23-21 46-29 70-23 7-14 13-28 17-42-27-17-41-38-41-63m-174-93c26 0 48 9 66 27 18 18 27 40 27 66 0 26-9 48-27 67-18 18-40 27-66 27-26 0-48-9-66-27-18-19-27-41-27-67 0-26 9-48 27-66 18-18 40-27 66-27"/>
<glyph glyph-name="fast-forward" unicode="&#104;" d="M474 268c5-3 7-7 7-12 0-5-2-9-7-11 0 0-190-127-190-127-8-5-14-6-19-3-5 2-8 9-8 18 0 0 0 247 0 247 0 9 3 16 8 18 5 3 11 2 19-3 0 0 190-127 190-127m-232 0c4-3 7-7 7-12 0-5-3-9-7-11 0 0-185-127-185-127-6-5-13-6-18-3-6 2-8 9-8 18 0 0 0 247 0 247 0 9 2 16 8 18 5 3 12 2 18-3 0 0 185-127 185-127"/>
<glyph glyph-name="install" unicode="&#97;" d="M478 233c8-17 11-34 7-49 0 0-17-94-17-94-1-7-4-13-10-18-6-5-12-7-20-7 0 0-364 0-364 0-8 0-15 2-20 7-6 5-9 11-10 18 0 0-18 94-18 94-2 17 0 34 8 49 0 0 80 192 80 192 8 16 20 24 37 24 0 0 54 0 54 0 0 0-11-105-11-105 0 0-68 0-68 0 0 0 130-107 130-107 0 0 131 107 131 107 0 0-70 0-70 0 0 0-9 105-9 105 0 0 52 0 52 0 17 0 30-8 38-24 0 0 80-192 80-192m-35-67c1 7-1 14-5 19-4 6-10 9-17 9 0 0-330 0-330 0-8 0-13-3-17-9-5-5-6-12-6-19 0 0 8-38 8-38 0-8 4-14 9-19 6-5 12-8 19-8 0 0 303 0 303 0 8 0 15 3 20 8 6 5 9 11 10 19 0 0 6 38 6 38"/>
<glyph glyph-name="down-circled" unicode="&#105;" d="M256 492c65 0 120-24 166-70 46-46 70-101 70-166 0-65-24-120-70-166-46-46-101-70-166-70-65 0-120 24-166 70-46 46-70 101-70 166 0 65 24 120 70 166 46 46 101 70 166 70m0-420c51 0 94 18 130 54 36 36 54 79 54 130 0 51-18 95-54 131-36 35-79 53-130 53-51 0-94-18-130-53-36-36-54-80-54-131 0-51 18-94 54-130 36-36 79-54 130-54m46 283c0 0 0-105 0-105 0 0 57 0 57 0 0 0-103-97-103-97 0 0-103 97-103 97 0 0 57 0 57 0 0 0 0 105 0 105 0 0 92 0 92 0"/>
<glyph glyph-name="eye" unicode="&#108;" d="M256 399c31 0 62-4 91-12 29-9 53-20 72-32 19-13 36-26 51-40 14-13 25-25 32-36 7-11 10-18 10-23 0-5-3-12-10-23-7-10-18-22-32-36-15-14-32-27-51-40-19-12-43-23-72-32-29-8-60-12-91-12-31 0-62 4-91 12-29 9-53 20-72 32-19 13-36 26-51 40-14 14-25 26-32 36-7 11-10 18-10 23 0 5 3 12 10 23 7 11 18 23 32 36 15 14 32 27 51 40 19 12 43 23 72 32 29 8 60 12 91 12m0-253c31 0 58 11 80 33 23 21 34 47 34 77 0 31-11 57-34 78-22 22-49 33-80 33-31 0-58-11-80-33-23-21-34-47-34-78 0-30 11-56 34-77 22-22 49-33 80-33m0 110c3-3 9-3 19-1 10 2 18 4 26 6 7 1 11 0 12-5 0-15-5-28-17-38-11-11-24-16-40-16-16 0-29 5-40 16-11 10-16 23-16 38 0 16 5 29 16 39 11 11 24 16 40 16 5 0 6-4 5-11-1-8-3-16-6-25-3-8-2-14 1-19"/>
<glyph glyph-name="columns" unicode="&#114;" d="M64 73l174 0 0 329-183 0 0-320c0-2 1-4 3-6 1-2 4-3 6-3z m393 9l0 320-183 0 0-329 174 0c2 0 5 1 6 3 2 2 3 4 3 6z m37 348l0-348c0-12-5-23-14-32-9-9-19-13-32-13l-384 0c-13 0-23 4-32 13-9 9-14 20-14 32l0 348c0 12 5 23 14 32 9 9 19 13 32 13l384 0c13 0 23-4 32-13 9-9 14-20 14-32z"/>
<glyph glyph-name="monitor" unicode="&#120;" d="M462 445l-412 0c-16 0-29-12-29-28l0-252c0-16 13-29 29-29l155 0 0-44-48 0c-5 0-8-4-8-8l0-9c0-5 3-8 8-8l194 0c4 0 8 3 8 8l0 9c0 4-4 8-8 8l-44 0 0 44 155 0c16 0 29 13 29 29l0 252c0 16-13 28-29 28z m-390-258l0 207 368 0 0-207z"/>
<glyph glyph-name="mobile" unicode="&#74;" d="M353 507c15 0 27-5 37-15 10-10 14-22 14-36 0 0 0-400 0-400 0-13-4-25-14-36-10-10-22-15-37-15 0 0-194 0-194 0-14 0-26 5-36 15-10 11-15 23-15 36 0 0 0 400 0 400 0 14 5 26 15 36 10 10 22 15 36 15 0 0 194 0 194 0m-97-481c10 0 19 2 26 7 6 5 10 11 10 18 0 8-4 14-10 19-7 4-16 7-26 7-10 0-18-3-25-8-7-5-11-11-11-18 0-7 4-13 11-18 7-5 15-7 25-7m108 76c0 0 0 338 0 338 0 0-216 0-216 0 0 0 0-338 0-338 0 0 216 0 216 0"/>
<glyph glyph-name="tablet" unicode="&#75;" d="M274 110c0 5-2 9-5 13-4 3-8 5-13 5-5 0-9-2-13-5-3-4-5-8-5-13 0-5 2-10 5-13 4-4 8-6 13-6 5 0 9 2 13 6 3 3 5 8 5 13z m110 45l0 275c0 2-1 4-3 6-2 2-4 3-6 3l-238 0c-2 0-4-1-6-3-2-2-3-4-3-6l0-275c0-2 1-4 3-6 2-2 4-3 6-3l238 0c2 0 4 1 6 3 2 2 3 4 3 6z m37 275l0-311c0-13-5-23-14-32-9-9-20-14-32-14l-238 0c-12 0-23 5-32 14-9 9-14 19-14 32l0 311c0 12 5 23 14 32 9 9 20 13 32 13l238 0c12 0 23-4 32-13 9-9 14-20 14-32z"/>
<glyph glyph-name="pencil" unicode="&#109;" d="M424 425c11-11 19-22 24-33 5-11 8-19 8-24 0 0 0-9 0-9 0 0-129-129-129-129 0 0-149-147-149-147 0 0-122-27-122-27 0 0 26 123 26 123 0 0 148 148 148 148 0 0 129 129 129 129 19 4 40-6 65-31m-253-328c0 0 12 13 12 13 0 15-9 31-26 48-8 7-16 13-23 18-8 4-14 6-18 6 0 0-7 1-7 1 0 0-12-12-12-12 0 0-9-41-9-41 10-5 17-11 24-17 8-9 14-17 18-25 0 0 41 9 41 9"/>
<glyph glyph-name="trash" unicode="&#103;" d="M388 341l-264 0c-7 0-12-5-12-12l0-256c0-6 5-12 12-12l264 0c7 0 12 6 12 12l0 256c0 7-5 12-12 12z m17 82l-101 0 0 16c0 6-5 12-12 12l-72 0c-7 0-12-6-12-12l0-16-100 0c-7 0-13-5-13-12l0-35c0-7 6-13 13-13l297 0c6 0 12 6 12 13l0 35c0 7-6 12-12 12z"/>
<glyph glyph-name="edit" unicode="&#78;" d="M160 64l-96 0 0 96z m352 352l-320-320-96 96 320 320z m-448-416l0 32 352 0 0-32z"/>
<glyph glyph-name="tick" unicode="&#79;" d="M458 418l-273-270-131 128-26-26 131-131 26-25 25 25 274 274z m0 0"/>
<glyph glyph-name="upload" unicode="&#98;" d="M389 330c34 0 63-12 87-35 24-23 36-52 36-85 0-34-12-62-36-85-24-23-53-35-87-35 0 0-97 0-97 0 0 0 0 97 0 97 0 0 54 0 54 0 0 0-90 118-90 118 0 0-89-118-89-118 0 0 53 0 53 0 0 0 0-97 0-97 0 0-127 0-127 0-25 0-47 9-65 27-19 17-28 39-28 63 0 25 9 47 27 65 18 17 40 26 66 26 5 0 8 0 10-1 0 4-1 11-1 20 0 37 14 68 40 94 27 26 59 39 97 39 30 0 58-9 82-27 23-17 39-40 48-68 9 1 16 2 20 2"/>
<glyph glyph-name="thumbnails" unicode="&#87;" d="M146 155l0-54c0-8-2-15-8-20-5-5-12-8-19-8l-92 0c-7 0-14 3-19 8-5 5-8 12-8 20l0 54c0 8 3 15 8 20 5 5 12 8 19 8l92 0c7 0 14-3 19-8 6-5 8-12 8-20z m0 147l0-55c0-8-2-14-8-20-5-5-12-8-19-8l-92 0c-7 0-14 3-19 8-5 6-8 12-8 20l0 55c0 7 3 14 8 19 5 5 12 8 19 8l92 0c7 0 14-3 19-8 6-5 8-12 8-19z m183-147l0-54c0-8-3-15-8-20-5-5-12-8-19-8l-92 0c-7 0-14 3-19 8-5 5-8 12-8 20l0 54c0 8 3 15 8 20 5 5 12 8 19 8l92 0c7 0 14-3 19-8 5-5 8-12 8-20z m-183 293l0-55c0-7-2-14-8-19-5-6-12-8-19-8l-92 0c-7 0-14 2-19 8-5 5-8 12-8 19l0 55c0 8 3 14 8 19 5 6 12 8 19 8l92 0c7 0 14-2 19-8 6-5 8-11 8-19z m183-146l0-55c0-8-3-14-8-20-5-5-12-8-19-8l-92 0c-7 0-14 3-19 8-5 6-8 12-8 20l0 55c0 7 3 14 8 19 5 5 12 8 19 8l92 0c7 0 14-3 19-8 5-5 8-12 8-19z m183-147l0-54c0-8-3-15-8-20-5-5-12-8-19-8l-92 0c-7 0-14 3-19 8-6 5-8 12-8 20l0 54c0 8 2 15 8 20 5 5 12 8 19 8l92 0c7 0 14-3 19-8 5-5 8-12 8-20z m-183 293l0-55c0-7-3-14-8-19-5-6-12-8-19-8l-92 0c-7 0-14 2-19 8-5 5-8 12-8 19l0 55c0 8 3 14 8 19 5 6 12 8 19 8l92 0c7 0 14-2 19-8 5-5 8-11 8-19z m183-146l0-55c0-8-3-14-8-20-5-5-12-8-19-8l-92 0c-7 0-14 3-19 8-6 6-8 12-8 20l0 55c0 7 2 14 8 19 5 5 12 8 19 8l92 0c7 0 14-3 19-8 5-5 8-12 8-19z m0 146l0-55c0-7-3-14-8-19-5-6-12-8-19-8l-92 0c-7 0-14 2-19 8-6 5-8 12-8 19l0 55c0 8 2 14 8 19 5 6 12 8 19 8l92 0c7 0 14-2 19-8 5-5 8-11 8-19z"/>
<glyph glyph-name="down-open" unicode="&#48;" d="M396 293c0 0-120-115-120-115-6-6-12-9-20-9-8 0-14 3-20 9 0 0-120 115-120 115-6 5-8 12-8 21 0 8 2 15 8 21 13 13 26 13 40 0 0 0 100-96 100-96 0 0 100 96 100 96 14 13 27 13 40 0 6-6 8-13 8-21 0-9-2-16-8-21"/>
<glyph glyph-name="up-open" unicode="&#49;" d="M396 220c6-5 8-12 8-21 0-8-2-15-8-21-13-13-26-13-40 0 0 0-100 96-100 96 0 0-100-96-100-96-14-13-27-13-40 0-6 6-8 13-8 21 0 9 2 16 8 21 0 0 120 115 120 115 5 5 12 8 20 8 8 0 15-3 20-8 0 0 120-115 120-115"/>
<glyph glyph-name="link" unicode="&#50;" d="M202 136c5 5 10 7 17 7 7 0 13-2 19-7 10-11 10-23 0-36 0 0-22-20-22-20-19-19-42-29-68-29-26 0-49 10-68 29-19 19-29 42-29 67 0 27 10 50 29 69 0 0 76 76 76 76 24 23 48 36 73 39 26 3 47-4 66-22 5-5 8-11 8-18 0-7-3-13-8-19-12-11-24-11-36 0-17 17-40 11-68-17 0 0-75-75-75-75-9-9-14-20-14-33 0-13 5-23 14-31 9-9 19-14 32-14 13 0 23 5 32 14 0 0 22 20 22 20m230 294c19-19 29-42 29-68 0-26-10-49-29-68 0 0-81-81-81-81-25-25-51-37-77-37-21 0-40 9-57 26-5 5-7 10-7 17 0 7 2 13 7 19 5 4 11 7 18 7 7 0 13-3 18-7 17-17 38-13 62 12 0 0 81 80 81 80 10 9 15 20 15 32 0 13-5 24-15 32-8 9-17 14-28 16-11 2-22-2-31-11 0 0-26-25-26-25-5-5-11-7-18-7-7 0-13 2-18 7-11 11-11 23 0 36 0 0 26 25 26 25 18 19 40 27 65 26 25-1 47-11 66-31"/>
<glyph glyph-name="level-up" unicode="&#86;" d="M179 430l-94-185c-3-3 3-6 6-3l46 14c2 3 8-3 8-6l0-150c0-6 3-9 9-9l267 0c6 0 9 3 9 9l0 65c0 6-3 9-9 9l-185 0c-6 0-8 2-8 8l0 65c0 3 2 6 8 6l46-14c2 0 5 3 5 3l-94 185c-8 5-11 5-14 3z"/>
<glyph glyph-name="image" unicode="&#52;" d="M171 341c0-14-5-26-15-36-10-10-22-15-37-15-14 0-26 5-36 15-10 10-15 22-15 36 0 15 5 27 15 37 10 10 22 15 36 15 15 0 27-5 37-15 10-10 15-22 15-37z m273-102l0-120-376 0 0 52 86 85 42-43 137 137z m25 188l-426 0c-3 0-5-1-6-3-2-2-3-4-3-6l0-324c0-2 1-4 3-6 1-2 3-3 6-3l426 0c3 0 5 1 6 3 2 2 3 4 3 6l0 324c0 2-1 4-3 6-1 2-3 3-6 3z m43-9l0-324c0-12-4-22-13-30-8-9-18-13-30-13l-426 0c-12 0-22 4-30 13-9 8-13 18-13 30l0 324c0 12 4 22 13 30 8 9 18 13 30 13l426 0c12 0 22-4 30-13 9-8 13-18 13-30z"/>
<glyph glyph-name="trash-bin" unicode="&#80;" d="M201 302l0-165c0-3-1-5-2-6-2-2-4-3-7-3l-18 0c-3 0-5 1-7 3-2 1-2 3-2 6l0 165c0 2 0 5 2 6 2 2 4 3 7 3l18 0c3 0 5-1 7-3 1-1 2-4 2-6z m73 0l0-165c0-3-1-5-2-6-2-2-4-3-7-3l-18 0c-3 0-5 1-7 3-1 1-2 3-2 6l0 165c0 2 1 5 2 6 2 2 4 3 7 3l18 0c3 0 5-1 7-3 1-1 2-4 2-6z m73 0l0-165c0-3 0-5-2-6-2-2-4-3-7-3l-18 0c-3 0-5 1-7 3-1 1-2 3-2 6l0 165c0 2 1 5 2 6 2 2 4 3 7 3l18 0c3 0 5-1 7-3 2-1 2-4 2-6z m37-207l0 271-256 0 0-271c0-4 1-8 2-12 1-3 3-6 4-7 2-2 3-3 3-3l238 0c0 0 1 1 3 3 1 1 3 4 4 7 1 4 2 8 2 12z m-192 307l128 0-14 34c-1 1-3 2-5 3l-90 0c-2-1-4-2-5-3z m265-9l0-18c0-3-1-5-2-7-2-1-4-2-7-2l-27 0 0-271c0-16-5-30-14-41-9-12-20-17-32-17l-238 0c-12 0-23 5-32 16-9 11-14 25-14 41l0 272-27 0c-3 0-5 1-7 2-1 2-2 4-2 7l0 18c0 3 1 5 2 7 2 1 4 2 7 2l88 0 20 48c3 7 8 13 16 18 7 5 15 7 22 7l92 0c7 0 15-2 22-7 8-5 13-11 16-18l20-48 88 0c3 0 5-1 7-2 1-2 2-4 2-7z"/>
<glyph glyph-name="left-open-big" unicode="&#53;" d="M368 67c9-9 9-18 0-25-8-9-17-9-24 0 0 0-201 202-201 202-8 8-8 16 0 25 0 0 201 202 201 202 7 9 16 9 24 0 9-7 9-16 0-25 0 0-183-190-183-190 0 0 183-189 183-189"/>
<glyph glyph-name="down-open-big" unicode="&#54;" d="M67 369c0 0 189-183 189-183 0 0 190 183 190 183 8 9 16 9 25 0 9-8 9-16 0-25 0 0-203-201-203-201-7-7-15-7-24 0 0 0-203 201-203 201-9 9-9 17 0 25 8 8 17 8 26 0"/>
<glyph glyph-name="up-open-big" unicode="&#55;" d="M446 143c0 0-190 184-190 184 0 0-189-184-189-184-9-7-18-7-26 0-8 9-8 17 0 26 0 0 203 200 203 200 9 9 17 9 24 0 0 0 203-200 203-200 8-9 8-17 0-26-9-7-17-7-25 0"/>
<glyph glyph-name="right-open-big" unicode="&#56;" d="M144 67c0 0 183 189 183 189 0 0-183 190-183 190-9 9-9 18 0 25 8 9 17 9 24 0 0 0 201-202 201-202 8-9 8-17 0-25 0 0-201-202-201-202-7-9-16-9-24 0-9 7-9 16 0 25"/>
<glyph glyph-name="save" unicode="&#33;" d="M358 125c0 3 0 6 0 6l0 34c46 0 83 37 83 82 0 46-37 83-83 83-11 0-25-3-34-9l-17 17c-28 63-102 92-165 63-45-20-74-63-74-114 0-68 23-125 94-125l0-34c0-3 0-6 0-6-91 3-134 77-134 168 0 91 74 165 165 165 60 0 114-31 145-85 69 14 134-32 146-100 11-68-32-133-100-145-6 0-17 0-26 0z m-102 188l-85-114 57 0 0-171 56 0 0 171 57 0z"/>
<glyph glyph-name="rocket" unicode="&#90;" d="M102 51c35 6 74 17 91 63 0 0 0 3-2 3-15-6-29-12-43-12 0 0-3 0-3 3-3 14 0 29 3 43 0 0 0 3-3 3-43-23-48-60-51-100 6 0 6-3 8-3z m111 262c-62-6-119-37-159-83 0-2 3-2 3-2 37 11 74 11 111 5 3 0 3-3 3-8l-9-43c0-3 0-6 3-6 11-2 20-8 28-17 9-8 17-17 20-28 0-3 3-3 6-3l40 17c3 0 6 0 8-3 12-34 15-74 9-111 0-3 0-3 3-3 0 0 3 0 3 0 42 46 65 106 62 168 0 3 0 3 3 3 85 71 134 174 137 282-109-15-205-77-265-168-3 3-3 0-6 0z m148 31c17-17 20-42 3-60-17-17-43-19-60-2-20 14-20 42-5 59 17 17 42 20 62 3 0 3 0 3 0 0z"/>
<glyph glyph-name="cancel" unicode="&#68;" d="M284 256l106 105c5 6 8 9 8 14 3 12-5 20-17 23-3 0-3 0-6 0-5 0-11-3-14-5l-105-109-105 109c-6 2-12 5-14 5-12 3-20-5-23-17 0-3 0-3 0-6 0-5 3-8 5-14l109-105-109-105c-2-6-5-12-5-14 0-12 5-20 17-20 3 0 3 0 6 0 5 0 11 2 14 5l105 106 105-106c3-3 9-5 14-5 12-3 20 5 20 17 0 0 0 3 0 3 0 5-2 11-5 14z"/>
<glyph glyph-name="happy" unicode="&#34;" d="M256 0c-141 0-256 115-256 256 0 141 115 256 256 256 141 0 256-115 256-256 0-141-115-256-256-256z m0 492c-130 0-236-106-236-236 0-130 106-236 236-236 130 0 236 106 236 236-1 130-106 235-236 236z m0-369c-46 0-90 18-123 51l14 14c60-60 157-60 217 0l15-14c-33-33-77-51-123-51z m-41 194c0-11-9-20-20-20-12 0-21 9-21 20 0 12 9 21 21 21 11 0 20-9 20-21z m123 0c0-11-9-20-21-20-11 0-20 9-20 20 0 12 9 21 20 21 12 0 21-9 21-21z"/>
<glyph glyph-name="sad" unicode="&#35;" d="M256 0c-141 0-256 115-256 256 0 141 115 256 256 256 141 0 256-115 256-256 0-141-115-256-256-256z m0 492c-130 0-236-106-236-236 0-130 106-236 236-236 130 0 236 106 236 236-1 130-106 235-236 236z m109-366c-60 60-158 60-218 0l-14 14c68 68 178 68 246 0z m-150 191c0-11-9-20-20-20-12 0-21 9-21 20 0 12 9 21 21 21 11 0 20-9 20-21z m123 0c0-11-9-20-21-20-11 0-20 9-20 20 0 12 9 21 20 21 12 0 21-9 21-21z"/>
<glyph glyph-name="angle-double-right" unicode="&#36;" d="M280 238c0-3-1-5-3-7l-133-133c-2-2-4-3-7-3-2 0-5 1-6 3l-15 14c-2 2-3 4-3 7 0 2 1 5 3 6l113 113-113 112c-2 2-3 4-3 7 0 2 1 4 3 6l15 14c1 2 4 3 6 3 3 0 5-1 7-3l133-133c2-2 3-4 3-6z m109 0c0-3-1-5-2-7l-134-133c-1-2-4-3-6-3-3 0-5 1-7 3l-14 14c-2 2-3 4-3 7 0 2 1 5 3 6l112 113-112 112c-2 2-3 4-3 7 0 2 1 4 3 6l14 14c2 2 4 3 7 3 2 0 5-1 6-3l134-133c1-2 2-4 2-6z"/>
<glyph glyph-name="angle-double-left" unicode="&#37;" d="M289 119c0-3-1-5-3-7l-14-14c-2-2-4-3-7-3-2 0-5 1-6 3l-134 133c-1 2-2 4-2 7 0 2 1 4 2 6l134 133c1 2 4 3 6 3 3 0 5-1 7-3l14-14c2-2 3-4 3-6 0-3-1-5-3-7l-112-112 112-113c2-1 3-4 3-6z m110 0c0-3-1-5-3-7l-15-14c-1-2-4-3-6-3-3 0-5 1-7 3l-133 133c-2 2-3 4-3 7 0 2 1 4 3 6l133 133c2 2 4 3 7 3 2 0 5-1 6-3l15-14c2-2 3-4 3-6 0-3-1-5-3-7l-113-112 113-113c2-1 3-4 3-6z"/>
<glyph glyph-name="angle-right" unicode="&#38;" d="M335 238c0-3-1-5-3-7l-133-133c-2-2-5-3-7-3-2 0-5 1-7 3l-14 14c-2 2-3 4-3 7 0 2 1 5 3 6l112 113-112 112c-2 2-3 4-3 7 0 2 1 4 3 6l14 14c2 2 5 3 7 3 2 0 5-1 7-3l133-133c2-2 3-4 3-6z"/>
<glyph glyph-name="angle-left" unicode="&#39;" d="M344 357c0-3-1-5-3-7l-112-112 112-113c2-1 3-4 3-6 0-3-1-5-3-7l-14-14c-2-2-5-3-7-3-2 0-5 1-7 3l-133 133c-2 2-3 4-3 7 0 2 1 4 3 6l133 133c2 2 5 3 7 3 2 0 5-1 7-3l14-14c2-2 3-4 3-6z"/>
<glyph glyph-name="caret-up-down" unicode="&#41;" d="M402 201c0-5-2-9-5-13l-128-128c-4-3-8-5-13-5-5 0-9 2-13 5l-128 128c-3 4-5 8-5 13 0 5 2 9 5 13 4 4 8 5 13 5l256 0c5 0 9-1 13-5 3-4 5-8 5-13z m0 110c0-5-2-9-5-13-4-4-8-5-13-5l-256 0c-5 0-9 1-13 5-3 4-5 8-5 13 0 5 2 9 5 13l128 128c4 3 8 5 13 5 5 0 9-2 13-5l128-128c3-4 5-8 5-13z"/>
<glyph glyph-name="caret-down-two" unicode="&#40;" d="M402 311c0-5-2-9-5-13l-128-128c-4-4-8-5-13-5-5 0-9 1-13 5l-128 128c-3 4-5 8-5 13 0 5 2 9 5 13 4 3 8 5 13 5l256 0c5 0 9-2 13-5 3-4 5-8 5-13z"/>
<glyph glyph-name="caret-up-two" unicode="&#42;" d="M402 165c0-5-2-10-5-13-4-4-8-6-13-6l-256 0c-5 0-9 2-13 6-3 3-5 8-5 13 0 5 2 9 5 12l128 128c4 4 8 6 13 6 5 0 9-2 13-6l128-128c3-3 5-7 5-12z"/>
<glyph glyph-name="right-dir" unicode="&#43;" d="M154 374c0 0 204-118 204-118 0 0-204-118-204-118 0 0 0 236 0 236"/>
<glyph glyph-name="down-dir" unicode="&#44;" d="M374 358c0 0-118-204-118-204 0 0-118 204-118 204 0 0 236 0 236 0"/>
<glyph glyph-name="link-broken" unicode="&#45;" d="M144 149l-73-73c-2-2-5-3-7-3-2 0-4 1-7 3-1 2-2 4-2 6 0 3 1 5 2 7l74 73c1 2 4 3 6 3 3 0 5-1 7-3 1-2 2-4 2-7 0-2-1-4-2-6z m48-12l0-91c0-3-1-5-3-7-1-2-3-2-6-2-3 0-5 0-7 2-1 2-2 4-2 7l0 91c0 3 1 5 2 7 2 1 4 2 7 2 3 0 5-1 6-2 2-2 3-4 3-7z m-64 64c0-3-1-5-3-6-1-2-3-3-6-3l-92 0c-2 0-4 1-6 3-2 1-3 3-3 6 0 3 1 5 3 7 2 1 4 2 6 2l92 0c3 0 5-1 6-2 2-2 3-4 3-7z m361-36c0-23-8-43-24-58l-42-42c-16-16-35-24-58-24-23 0-43 8-58 24l-96 96c-4 4-8 9-12 16l68 5 78-78c6-5 12-8 20-8 8 0 14 3 19 8l42 41c6 6 8 12 8 20 0 7-2 14-8 19l-78 79 5 68c7-4 12-8 16-12l96-96c16-17 24-36 24-58z m-176 206l-68-5-78 79c-6 5-12 8-20 8-7 0-14-3-19-8l-42-42c-6-5-8-12-8-19 0-8 2-14 8-19l78-79-5-68c-7 4-12 8-16 12l-96 96c-16 16-24 36-24 58 0 23 8 42 24 58l42 42c16 16 35 23 58 23 23 0 43-8 58-24l96-96c4-4 8-9 12-16z m181-24c0-2-1-4-3-6-2-2-4-3-6-3l-92 0c-3 0-5 1-6 3-2 2-3 4-3 6 0 3 1 5 3 7 1 2 3 3 6 3l92 0c2 0 4-1 6-3 2-2 3-4 3-7z m-156 156l0-92c0-2-1-4-2-6-2-2-4-3-7-3-3 0-5 1-6 3-2 2-3 4-3 6l0 92c0 3 1 5 3 6 1 2 3 3 6 3 3 0 5-1 7-3 1-1 2-3 2-6z m117-43l-74-73c-2-2-4-3-6-3-2 0-5 1-7 3-1 1-2 4-2 6 0 3 1 5 2 7l73 73c2 2 5 2 7 2 2 0 5 0 7-2 1-2 2-4 2-7 0-2-1-4-2-6z"/>
<glyph glyph-name="switch" unicode="&#46;" d="M358 380c0 0 0-72 0-72 0 0-256 0-256 0 0 0 0-46 0-46 0 0-102 82-102 82 0 0 102 87 102 87 0 0 0-51 0-51 0 0 256 0 256 0m154-215c0 0-102-82-102-82 0 0 0 46 0 46 0 0-256 0-256 0 0 0 0 72 0 72 0 0 256 0 256 0 0 0 0 51 0 51 0 0 102-87 102-87"/>
<glyph glyph-name="resize" unicode="&#76;" d="M336 296l-199 0 0-36-80 64 80 67 0-39 199 0 0-57z m39-175l0 35-199 0 0 57 199 0 0 39 80-68z m-347 334l29 0 0-398-29 0z m427 0l29 0 0-398-29 0z"/>
<glyph glyph-name="menu" unicode="&#47;" d="M410 282c7 0 13-3 18-8 5-5 7-11 7-18 0-7-2-13-7-18-6-5-12-8-18-8 0 0-308 0-308 0-6 0-12 3-18 8-5 5-7 11-7 18 0 7 2 13 7 18 5 5 11 8 18 8 0 0 308 0 308 0m-308 51c-6 0-12 2-18 7-5 6-7 12-7 18 0 7 2 13 7 18 5 5 11 8 18 8 0 0 308 0 308 0 7 0 13-3 18-8 5-5 7-11 7-18 0-6-2-12-7-18-6-5-12-7-18-7 0 0-308 0-308 0m308-154c7 0 13-2 18-7 5-6 7-12 7-18 0-7-2-13-7-18-6-5-12-8-18-8 0 0-308 0-308 0-6 0-12 3-18 8-5 5-7 11-7 18 0 6 2 12 7 18 5 5 11 7 18 7 0 0 308 0 308 0"/>
<glyph glyph-name="edit-list" unicode="&#58;" d="M199 114l73 0 218 218-72 73-219-218z m-199 284l284 0 0-28-284 0z m0-85l199 0 0-29-199 0z m0-85l114 0 0-29-114 0z"/>
<glyph glyph-name="help-circled" unicode="&#59;" d="M253 492c65 0 120-22 167-67 46-45 70-100 72-165 0-65-22-121-68-167-45-47-100-71-165-73-65 0-121 22-167 68-47 45-71 100-72 165-1 65 21 121 67 167 46 47 101 71 166 72m-1-379c10 0 19 3 25 9 6 7 10 15 10 24 0 11-2 19-9 26-6 6-15 9-25 9 0 0-1 0-1 0-10 0-18-3-24-9-7-6-10-14-11-24 0-10 3-18 10-25 6-6 14-10 24-10 0 0 1 0 1 0m85 168c9 11 13 24 13 40 0 26-9 46-27 59-18 13-41 19-69 19-22 0-40-4-53-13-24-14-36-39-37-75 0 0 0-2 0-2 0 0 56 0 56 0 0 0 0 2 0 2 0 9 3 18 8 28 6 8 15 12 28 12 14 0 23-3 27-10 5-7 8-14 8-23 0-6-3-13-8-20-3-4-7-8-11-10 0 0-3-2-3-2-2-2-4-4-8-6-3-2-7-5-10-8-4-2-7-5-11-8-4-3-7-6-9-9-4-7-7-20-9-40 0 0 0-4 0-4 0 0 56 0 56 0 0 0 0 2 0 2 0 4 0 9 2 14 2 7 6 13 14 19 0 0 14 9 14 9 16 12 25 20 29 26"/>
<glyph glyph-name="icon-enlarge" unicode="&#61;" d="M473 98l-103 103c18 28 28 61 28 95-2 103-85 185-188 188-100 0-182-82-182-182 3-103 85-186 188-188 32 0 64 8 92 25l102-103c11-10 28-10 39 0l29 28c4 5 6 12 5 18-1 7-4 13-10 16z m-388 204c1 68 57 124 125 125 72-3 129-60 131-131 0-69-56-125-125-125-71 2-128 59-131 131z m114 68l29 0 0-142-29 0z m-57-86l0 29 142 0 0-29z"/>
<glyph glyph-name="page-multiple" unicode="&#62;" d="M443 393l-18 0 0-343c0-4-4-7-8-7l-253 0 0-18c0-5 3-8 8-8l271 0c4 0 7 3 7 8l0 360c0 4-3 8-7 8z m-44-317l0 360c0 4-3 8-7 8l-18 0 0-343c0-4-4-7-8-7l-253 0 0-18c0-4 3-8 7-8l272 0c4 0 7 4 7 8z m-51 51l0 360c0 5-3 8-8 8l-271 0c-4 0-7-3-7-8l0-360c0-4 3-8 7-8l271 0c5 0 8 4 8 8z"/>
<glyph glyph-name="database" unicode="&#63;" d="M428 183c5 7 7 7 7-1 0 0 0-51 0-51 0-25-18-48-53-69-36-21-78-31-126-31-48 0-90 10-125 31-36 21-54 44-54 69 0 0 0 51 0 51 0 3 0 5 2 5 1 1 3 0 5-4 11-17 32-32 64-44 32-11 68-17 108-17 40 0 76 6 108 17 32 12 53 27 64 44m1 130c3 6 5 6 6 0 0 0 0-59 0-59 0-23-17-43-52-58-35-16-77-24-127-24-49 0-91 8-126 24-36 15-53 35-53 58 0 0 0 59 0 59 0 7 2 7 7 0 10-15 31-28 63-38 33-10 69-15 109-15 40 0 76 5 109 15 32 10 53 23 64 38m-173 168c49 0 91-6 126-20 36-13 53-29 53-47 0 0 0-33 0-33 0-20-17-37-53-51-35-14-77-21-126-21-49 0-91 7-126 21-36 14-53 31-53 51 0 0 0 33 0 33 0 18 17 34 53 47 35 14 77 20 126 20"/>
<glyph glyph-name="block" unicode="&#60;" d="M256 502c68 0 126-24 174-72 48-48 72-106 72-174 0-68-24-125-72-174-48-48-106-72-174-72-68 0-125 24-174 72-48 49-72 106-72 174 0 68 24 126 72 174 49 48 106 72 174 72m132-113l0 0m-318-133c0-45 14-84 42-118 0 0 263 263 263 263-34 28-74 42-119 42-52 0-96-18-132-54-36-37-54-81-54-133m54-132l0 0m132-54c52 0 96 18 133 54 36 37 54 81 54 132 0 44-14 84-42 119 0 0-263-263-263-263 34-28 73-42 118-42"/>
<glyph glyph-name="up-circled" unicode="&#93;" d="M256 20c-65 0-120 24-166 70-46 46-70 101-70 166 0 66 24 121 70 167 46 46 101 69 166 69 65 0 120-23 166-69 46-46 70-101 70-167 0-65-24-120-70-166-46-46-101-70-166-70m0 420c-51 0-94-18-130-53-36-36-54-80-54-131 0-51 18-94 54-130 36-36 79-54 130-54 51 0 95 18 131 54 35 36 53 79 53 130 0 51-18 95-53 131-36 35-80 53-131 53m-46-282c0 0 0 104 0 104 0 0-57 0-57 0 0 0 103 98 103 98 0 0 103-98 103-98 0 0-57 0-57 0 0 0 0-104 0-104 0 0-92 0-92 0"/>
<glyph glyph-name="clock" unicode="&#94;" d="M256 492c65 0 120-24 166-70 46-46 70-101 70-166 0-65-24-120-70-166-46-46-101-70-166-70-65 0-120 24-166 70-46 46-70 101-70 166 0 65 24 120 70 166 46 46 101 70 166 70m0-420c51 0 95 18 131 54 35 36 53 79 53 130 0 51-18 95-53 131-36 35-80 53-131 53-51 0-94-18-130-53-36-36-54-80-54-131 0-51 18-94 54-130 36-36 79-54 130-54m18 317c0 0 0-125 0-125 0 0 77-77 77-77 0 0-25-25-25-25 0 0-87 87-87 87 0 0 0 140 0 140 0 0 35 0 35 0"/>
<glyph glyph-name="spinner" unicode="&#95;" d="M174 128c0-11-4-21-12-29-9-8-18-12-29-12-12 0-22 4-30 12-8 8-12 18-12 29 0 11 4 21 12 29 8 8 18 12 30 12 11 0 20-4 29-12 8-8 12-18 12-29z m123-55c0-10-3-19-11-26-7-7-15-10-25-10-11 0-19 3-26 10-7 7-11 16-11 26 0 10 4 19 11 26 7 7 15 11 26 11 10 0 18-4 25-11 8-7 11-16 11-26z m-174 183c0-13-4-23-13-32-9-9-20-14-32-14-13 0-24 5-33 14-9 9-13 19-13 32 0 13 4 23 13 32 9 9 20 14 33 14 12 0 23-5 32-14 9-9 13-19 13-32z m298-128c0-9-4-16-10-23-6-6-14-9-22-9-9 0-17 3-23 9-6 7-9 14-9 23 0 9 3 16 9 23 6 6 14 9 23 9 8 0 16-3 22-9 6-7 10-14 10-23z m-238 256c0-14-5-26-15-36-10-9-22-14-35-14-14 0-26 5-36 14-10 10-15 22-15 36 0 14 5 26 15 36 10 9 22 14 36 14 13 0 25-5 35-14 10-10 15-22 15-36z m132 55c0-15-5-28-16-39-10-11-23-16-38-16-16 0-29 5-39 16-11 11-16 24-16 39 0 15 5 28 16 39 10 10 23 16 39 16 15 0 28-6 38-16 11-11 16-24 16-39z m156-183c0-8-3-14-8-19-5-6-12-8-20-8-7 0-14 2-19 8-5 5-8 11-8 19 0 8 3 14 8 19 5 6 12 8 19 8 8 0 15-2 20-8 5-5 8-11 8-19z m-60 128c0-6-2-12-6-16-5-5-10-7-16-7-7 0-12 2-17 7-4 4-6 10-6 16 0 6 2 12 6 16 5 5 10 7 17 7 6 0 11-2 16-7 4-4 6-10 6-16z"/>
<glyph glyph-name="menu-campaigns" unicode="&#96;" d="M429 368c3 0 6-4 6-7l0-328c0-5-3-7-6-7l-251 0c-4 0-7 2-7 7l0 16 234 0c3 0 7 3 7 7l0 312z m-41-289c0-3-3-7-6-7l-252 0c-3 0-6 4-6 7l0 17 234 0c3 0 7 2 7 6l0 312 17 0c3 0 6-3 6-7z m-47 47c0-4-3-8-7-8l-251 0c-3 0-6 4-6 8l0 328c0 4 3 7 6 7l251 0c4 0 7-3 7-7z"/>
<glyph glyph-name="menu-files" unicode="&#123;" d="M184 320c0-12-4-23-13-31-8-9-19-13-31-13-12 0-23 4-31 13-9 8-13 19-13 31 0 12 4 23 13 31 8 9 19 13 31 13 12 0 23-4 31-13 9-8 13-19 13-31z m232-88l0-103-320 0 0 45 73 73 36-37 116 117z m21 161l-362 0c-3 0-4-1-5-2-2-2-3-4-3-5l0-278c0-2 1-4 3-5 1-2 2-3 5-3l362 0c3 0 4 1 5 3 2 1 3 3 3 5l0 278c0 1-1 3-3 5-1 1-2 2-5 2z m37-7l0-278c0-11-4-19-11-26-7-8-16-11-26-11l-362 0c-10 0-19 3-26 11-7 7-11 15-11 26l0 278c0 10 4 18 11 25 7 8 16 11 26 11l362 0c10 0 19-3 26-11 7-7 11-15 11-25z"/>
<glyph glyph-name="menu-help" unicode="&#124;" d="M254 448c52 0 97-18 135-55 38-36 57-81 59-134 0-53-18-98-55-136-37-38-82-57-135-59-52 0-98 18-135 55-39 37-58 82-59 135-1 52 17 98 55 135 37 39 82 58 135 59m-1-308c8 0 15 2 20 7 5 6 8 12 8 20 0 8-1 15-7 21-5 5-12 7-20 7l-1 0c-8 0-15-2-20-7-5-5-8-12-9-20 0-8 3-15 8-20 5-5 12-8 20-8l1 0m69 136c7 9 10 20 10 33 0 21-7 37-21 48-15 10-34 15-57 15-18 0-32-3-43-10-19-12-29-32-30-61l0-2 46 0 0 2c0 7 2 14 6 23 5 6 12 9 23 9 11 0 19-2 22-8 4-6 6-11 6-19 0-4-2-10-6-16-2-3-6-6-9-8l-2-2c-2-1-4-3-7-4-2-2-6-5-8-7-3-2-6-4-9-6-3-3-6-5-7-8-4-6-6-16-8-32l0-4 46 0 0 2c0 3 0 7 2 11 1 6 4 11 11 16l11 7c13 10 21 16 24 21"/>
<glyph glyph-name="menu-modaladmin" unicode="&#125;" d="M397 194c4 6 6 6 6-1l0-44c0-21-15-41-45-59-30-17-65-26-105-26-41 0-76 9-105 26-30 18-46 38-46 59l0 44c0 2 0 4 2 4 1 1 3 0 4-3 10-15 27-28 54-38 27-9 57-14 91-14 33 0 63 5 90 14 27 10 45 23 54 38m1 111c2 5 4 5 5 0l0-51c0-19-14-36-44-49-29-14-64-21-106-21-41 0-77 7-106 21-30 13-45 30-45 49l0 51c0 6 2 6 6 0 9-13 26-24 53-33 28-8 58-13 92-13 33 0 63 5 91 13 27 9 45 20 54 33m-145 143c41 0 76-5 105-17 31-11 45-25 45-40l0-28c0-17-14-32-45-44-29-12-64-18-105-18-41 0-77 6-106 18-30 12-45 27-45 44l0 28c0 15 15 29 45 40 29 12 65 17 106 17"/>
<glyph glyph-name="menu-pages" unicode="&#126;" d="M474 179l0-77c0-6-3-11-7-16-4-5-10-6-16-6l-79 0c-5 0-11 1-16 6-5 5-6 10-6 16l0 77c0 7 1 13 6 17 5 4 11 7 16 7l24 0 0 46-125 0 0-46 24 0c6 0 12-3 16-7 5-4 7-10 7-17l0-77c0-6-2-11-7-16-4-5-10-6-16-6l-78 0c-6 0-12 1-16 6-4 5-7 10-7 16l0 77c0 7 3 13 7 17 4 4 10 7 16 7l24 0 0 46-125 0 0-46 24 0c6 0 11-3 16-7 5-4 7-10 7-17l0-77c0-6-2-11-7-16-5-5-10-6-16-6l-79 0c-6 0-12 1-16 6-4 5-7 10-7 16l0 77c0 7 3 13 7 17 4 4 10 7 16 7l24 0 0 46c0 8 3 15 10 21 5 6 13 9 21 9l125 0 0 46-24 0c-6 0-12 3-16 7-4 4-7 10-7 17l0 76c0 7 3 12 7 16 4 5 10 7 16 7l78 0c6 0 12-2 16-7 5-4 7-9 7-16l0-76c0-7-2-13-7-17-4-4-10-7-16-7l-24 0 0-46 125 0c8 0 16-3 22-9 6-6 9-13 9-21l0-46 24 0c6 0 12-3 16-7 4-4 7-10 7-17z"/>
<glyph glyph-name="menu-reports" unicode="&#92;" d="M40 248c-12 3-17 11-13 24 2 12 10 17 23 14l42-11-22-34-30 7m387-5c3 3 8 5 13 5 6-1 10-3 14-7 9-9 9-18-1-28l-109-96c-4-3-8-5-13-5-5 0-8 2-12 4l-124 94-24 7 22 33 15-3c4-1 6-2 7-3l115-88 97 87m-213 94l-152-235c-3-7-9-10-17-10-3 0-6 2-10 4-4 3-8 7-8 12-1 6 0 10 2 14l162 251c3 5 6 8 12 10 5 1 11 1 16-3l107-67 97 139c4 5 8 8 13 9 5 0 10-1 14-5 12-6 13-15 6-26l-109-155c-8-10-16-11-27-5l-106 67"/>
<glyph glyph-name="menu-security" unicode="&#57344;" d="M466 227l-74 36c18 10 29 31 29 55 0 35-25 63-55 63-11 0-20-3-28-9 5-13 8-26 8-41 0-21-7-42-18-59 3-4 8-8 13-10l47-22c14-7 23-22 23-37l0-61 50 0c6 0 13 6 13 14l0 58c0 6-4 12-8 13z m-293 36c3 2 7 5 10 8-11 17-18 38-18 60 0 15 3 29 8 42-8 5-17 8-27 8-30 0-55-28-55-63 0-25 12-46 30-56l-75-35c-4-1-8-7-8-13l0-58c0-8 7-14 13-14l49 0 0 61c0 15 9 30 23 37z m206-44l-64 30-28 14c13 7 22 18 29 32 4 11 8 23 8 36 0 8-2 15-4 21-8 34-34 58-65 58-30 0-56-23-65-56-1-7-2-15-2-23 0-14 2-27 8-39 7-12 16-23 28-30l-26-12-66-31c-6-2-9-8-9-16l0-72c0-9 6-17 15-17l234 0c9 0 16 8 16 17l0 72c0 8-4 14-9 16z"/>
<glyph glyph-name="menu-settings" unicode="&#57345;" d="M256 167c-49 0-89 40-89 89 0 49 40 89 89 89 49 0 89-40 89-89 0-49-40-89-89-89m183 112l-41 18c-3 11-8 21-13 31l17 41c2 5 1 12-4 16l-13 14c-5 4-11 5-17 3l-40-17c-10 6-20 10-31 13l-18 41c-2 5-7 9-13 9l-20 0c-6 0-11-4-13-9l-18-41c-11-3-21-8-31-13l-41 16c-5 3-12 1-16-3l-14-14c-4-4-5-10-3-16l17-40c-6-10-10-20-13-32l-41-17c-5-2-9-7-9-13l0-20c0-6 4-11 9-14l41-17c3-11 8-21 13-31l-17-41c-2-6-1-12 4-16l13-14c5-4 11-5 17-3l40 17c10-6 20-10 31-13l18-41c2-5 7-9 13-9l20 0c6 0 11 3 13 9l18 41c11 3 21 7 31 13l41-17c5-2 12-1 16 3l14 14c4 5 5 11 3 16l-17 41c6 10 10 20 13 31l41 17c5 3 9 8 9 14l0 20c0 6-4 11-9 13"/>
<glyph glyph-name="sort" unicode="&#57347;" d="M359 395l50 0-20 63-4 13c0 3 0 5 0 6l-2 0 0-6c0 0-1-2-1-5-1-3-2-6-3-8z m-130-294c0-3-1-5-3-7l-91-91c-2-2-5-3-7-3-2 0-4 1-7 3l-91 91c-3 3-4 6-2 10 2 4 4 6 9 6l54 0 0 393c0 3 1 5 3 6 2 2 4 3 7 3l54 0c3 0 5-1 7-3 2-1 3-3 3-6l0-393 54 0c3 0 5-1 7-3 2-2 3-4 3-6z m238-34l0-67-166 0 0 26 105 151c2 3 4 6 6 8l3 2 0 1c0 0-1 0-2 0-1 0-1 0-2 0-2-1-5-1-8-1l-67 0 0-33-34 0 0 65 162 0 0-25-105-151c-2-2-4-4-6-8l-4-3 0-1 4 1c2 0 5 1 9 1l71 0 0 34z m26 256l0-30-82 0 0 30 21 0-13 41-70 0-13-41 21 0 0-30-82 0 0 30 20 0 66 189 46 0 66-189z"/>
<glyph glyph-name="lock" unicode="&#57348;" d="M404 321c7 0 14-4 21-10 7-7 10-14 10-21 0 0 0-200 0-200 0-16-8-28-24-34 0 0-31-9-31-9-14-5-31-8-49-8 0 0-149 0-149 0-19 0-36 3-50 8 0 0-31 9-31 9-16 6-24 18-24 34 0 0 0 200 0 200 0 7 2 14 7 21 6 6 12 10 18 10 0 0 52 0 52 0 0 0 0 35 0 35 0 38 8 67 26 87 17 21 43 31 76 31 33 0 59-10 76-31 18-20 26-49 26-87 0 0 0-35 0-35 0 0 46 0 46 0m-199 46c0 0 0-46 0-46 0 0 102 0 102 0 0 0 0 46 0 46 0 17-4 31-14 41-9 10-21 15-37 15-16 0-28-5-37-15-10-10-14-24-14-41"/>
<glyph glyph-name="cross-mark" unicode="&#57349;" d="M414 159l-97 97 97 97c17 17 17 44 0 61-17 17-44 17-61 0l-97-97-97 97c-17 17-44 17-61 0-17-17-17-44 0-61l97-97-97-97c-17-17-17-44 0-61 8-8 19-13 30-13 11 0 23 5 31 13l97 97 97-97c9-8 20-13 31-13 11 0 22 5 30 13 17 17 17 44 0 61z"/>
<glyph glyph-name="folder-add" unicode="&#57350;" d="M384 213l-43 0 0-42-42 0 0 42-43 0 0 43 43 0 0 43 42 0 0-43 43 0z m-139 150l-41 64-146 0c-9 0-15-7-15-15l0-289c0-9 7-16 15-16 66 0 307 0 373 0 10 0 17 7 17 16l0 223c0 9-7 17-17 17-48-1-186 0-186 0z"/>
<glyph glyph-name="drag-handle" unicode="&#83;" d="M171 512l57 0 0-57-57 0z m0-114l57 0 0-57-57 0z m0-114l57 0 0-56-57 0z m0-113l57 0 0-57-57 0z m0-114l57 0 0-57-57 0z m113 455l57 0 0-57-57 0z m0-114l57 0 0-57-57 0z m0-114l57 0 0-56-57 0z m0-113l57 0 0-57-57 0z m0-114l57 0 0-57-57 0z m-277 454l0-1 0 0 0 1z m0-4l0-1 0 0 0 1z m0-3l0-2 0 0 0 2z m0-4l0-2 0 0 0 2z m0-4l0-1 0 0 0 1z m4 15l0-1 0 0 0 1z m0-4l0-1 0 0 0 1z m0-3l0-2 0 0 0 2z m0-4l0-2 0 0 0 2z m0-4l0-1 0 0 0 1z"/>
<glyph glyph-name="safari" unicode="&#57354;" d="M271 257c0-5-1-9-5-13-3-4-7-5-11-5-5 0-10 1-13 4-4 3-6 7-6 12 0 5 2 9 5 13 3 4 7 5 12 5 5 0 9-1 13-4 3-3 5-7 5-12z m4-17l100 166c-1-1-8-7-19-18-11-10-23-21-36-33-12-12-25-24-39-36-13-13-24-23-33-32-9-8-14-13-15-14l-99-166c1 1 7 7 19 18 11 10 23 21 36 33 12 12 25 24 39 36 13 13 24 23 33 32 9 9 14 13 14 14z m185 16c0-38-10-74-29-106-1 0-3 1-5 3-3 2-5 3-8 5-2 1-4 2-5 2-2 0-3-1-3-4 0-2 5-6 17-12-15-22-32-40-53-55-21-15-44-25-69-31l-5 19c0 2-1 3-4 3-1 0-2-1-2-2-1-1-1-2-1-3l5-19c-14-3-28-4-42-4-38 0-73 10-106 30 0 0 1 2 3 6 3 3 5 6 7 9 1 3 2 5 2 6 0 2-1 3-3 3-2 0-3-1-5-4-2-3-5-6-7-10-2-4-3-6-4-6-21 14-39 32-54 53-15 22-26 45-32 70l20 4c2 1 3 2 3 5 0 1-1 1-2 2-1 1-2 1-3 1l-19-5c-3 14-4 27-4 40 0 39 10 75 31 108 0 0 2-1 5-3 3-2 6-4 9-6 2-1 4-2 5-2 2 0 3 1 3 4 0 1-1 2-3 4-3 2-6 4-9 6l-6 4c15 21 33 39 54 54 21 14 44 24 70 30l4-19c0-2 2-3 4-3 1 0 2 1 2 2 1 1 1 2 1 3l-4 19c13 2 26 3 38 3 39 0 75-10 108-31-7-11-11-17-11-18 0-3 1-4 4-4 2 0 6 6 13 18 21-14 39-32 54-53 14-21 25-44 31-69l-16-3c-2-1-3-2-3-5 0-1 0-2 1-2 1-1 2-1 3-1l16 4c3-14 4-27 4-40z m25 0c0 31-6 61-19 89-12 28-28 52-48 73-21 20-45 36-73 48-28 13-58 19-89 19-31 0-61-6-89-19-28-12-52-28-73-48-20-21-36-45-48-73-13-28-19-58-19-89 0-31 6-61 19-89 12-28 28-52 48-73 21-20 45-36 73-48 28-13 58-19 89-19 31 0 61 6 89 19 28 12 52 28 73 48 20 21 36 45 48 73 13 28 19 58 19 89z m27 0c0-35-7-68-20-99-14-32-32-59-55-82-23-23-50-41-82-55-31-13-64-20-99-20-35 0-68 7-99 20-32 14-59 32-82 55-23 23-41 50-55 82-13 31-20 64-20 99 0 35 7 68 20 99 14 32 32 59 55 82 23 23 50 41 82 55 31 13 64 20 99 20 35 0 68-7 99-20 32-14 59-32 82-55 23-23 41-50 55-82 13-31 20-64 20-99z"/>
<glyph glyph-name="folder-move" unicode="&#57351;" d="M299 170l0 43-64 0 0 43 64 0 0 42 85-63z m-95 257l-146 0c-9 0-15-7-15-15l0-289c0-9 7-16 15-16 66 0 307 0 373 0 10 0 17 7 17 16l0 223c0 9-7 17-17 17-48-1-186 0-186 0z"/>
<glyph glyph-name="clipboard-pencil" unicode="&#57356;" d="M450 292l-42 42c-2 2-6 2-9 0l-115-116 0 0-1 0-15-59 0 0c-1-2-1-5 1-6 2-2 5-3 7-2l0 0 59 16 0 0 0 0 115 116c3 2 3 6 0 9z m-163-121l9 35 26-26z m81-34l-38 0c0 0 0 0 0 0-3 0-6-3-6-6l0 0 0-45-213 0 0 314 25 0 0-15c0-1 0-1 0-1 0-5 4-9 9-9 1 0 1 0 1 0l0 0 143 0c5 0 9 4 9 9 0 0 0 0 0 0l0 16 26 0 0-44 0 0c0-4 3-7 6-7l38 0c4 0 7 3 7 7l0 68 0 0c0 0 0 0 0 0 0 15-12 27-27 27 0 0 0 0-1 0l-74 0 0 18c0 4-4 8-8 8l0 0-95 0 0 0c0 0 0 0 0 0-5 0-8-4-8-8 0 0 0 0 0-1l0-17-75 0c0 0 0 0 0 0-15 0-27-12-27-27 0 0 0 0 0 0l0 0 0-362 0 0c0 0 0 0 0 0 0-15 12-27 27-27 0 0 0 0 1 0l0 0 258 0c1 0 1 0 2 0 15 0 27 12 27 27 0 0 0 0 0 0l0 0 0 69c0 3-3 6-7 6z"/>
<glyph glyph-name="picture" unicode="&#118;" d="M438 342c0 0-51 0-51 0 0 0-63 77-63 77 0 0-110-77-110-77 0 0-92 0-92 0-18 0-33-7-46-20-13-13-19-29-19-47 0 0 0-81 0-81 0 0-56 151-56 151-3 13 1 22 11 27 0 0 349 127 349 127 12 3 20-1 25-13 0 0 52-144 52-144m55-46c5 0 10-2 14-6 3-4 5-9 5-15 0 0 0-241 0-241 0-6-2-10-5-15-4-4-9-6-14-6 0 0-371 0-371 0-5 0-10 2-14 6-4 5-5 9-5 15 0 0 0 241 0 241 0 6 1 11 5 15 4 4 9 6 14 6 0 0 371 0 371 0m-29-231c0 0 0 82 0 82 0 0-37 82-37 82 0 0-85-30-85-30 0 0-66-68-66-68 0 0-71 87-71 87 0 0-47-109-47-109 0 0 0-44 0-44 0 0 306 0 306 0"/>
<glyph glyph-name="sliders" unicode="&#57357;" d="M137 110l0-37-100 0 0 37z m101 36c5 0 9-2 13-5 3-4 5-8 5-13l0-73c0-5-2-9-5-13-4-4-8-5-13-5l-73 0c-5 0-10 1-13 5-4 4-6 8-6 13l0 73c0 5 2 9 6 13 3 3 8 5 13 5z m45 110l0-37-246 0 0 37z m-182 146l0-36-64 0 0 36z m374-292l0-37-210 0 0 37z m-274 329c5 0 9-2 13-6 4-3 5-7 5-12l0-74c0-5-1-9-5-12-4-4-8-6-13-6l-73 0c-5 0-9 2-13 6-3 3-5 7-5 12l0 74c0 5 2 9 5 12 4 4 8 6 13 6z m183-146c5 0 9-2 13-6 3-3 5-8 5-13l0-73c0-5-2-9-5-13-4-3-8-5-13-5l-73 0c-5 0-9 2-13 5-4 4-5 8-5 13l0 73c0 5 1 10 5 13 4 4 8 6 13 6z m91-37l0-37-64 0 0 37z m0 146l0-36-246 0 0 36z"/>
<glyph glyph-name="white-question" unicode="&#57358;" d="M256 484c-126 0-228-102-228-228 0-126 102-228 228-228 126 0 228 102 228 228 0 126-102 228-228 228z m0-399c-94 0-171 77-171 171 0 94 77 171 171 171 94 0 171-77 171-171 0-94-77-171-171-171z m58 173c-10-9-27-16-31-18-4-2-4-4-4-10l0-8-57 0 0 18c0 14 1 22 16 30l20 10c7 5 16 8 16 15 0 8-7 11-24 11-16 0-33-6-45-14l-15 50c8 4 30 18 72 18 42 0 72-26 72-57 0-26-9-36-20-45z m-64-111c-22 0-37 12-37 32 0 21 15 33 37 33 22 0 37-12 37-33 0-20-15-32-37-32z"/>
<glyph glyph-name="home" unicode="&#57346;" d="M480 249c6-6 8-10 6-14-2-4-6-6-14-6 0 0-43 0-43 0 0 0 0-158 0-158 0-5 0-9 0-11-1-2-2-5-4-7-3-2-7-3-12-3 0 0-105 0-105 0 0 0 0 159 0 159 0 0-104 0-104 0 0 0 0-159 0-159 0 0-99 0-99 0-10 0-16 2-18 5-3 4-4 9-4 16 0 0 0 158 0 158 0 0-43 0-43 0-7 0-12 2-14 6-1 4 0 8 6 14 0 0 205 206 205 206 5 5 12 8 19 8 8 0 14-3 20-8 0 0 204-206 204-206"/>
<glyph glyph-name="block-banner" unicode="&#57353;" d="M128 183l0-18 256 0 0 18z m18-37l0-18 220 0 0 18z m156 165l45-73-91 0z m9 55c0-10-8-19-18-19-11 0-19 9-19 19 0 10 8 18 19 18 10 0 18-8 18-18z m-82-19l64-109-128 0z m-156 110c-10 0-18-8-18-18l0-366c0-10 8-18 18-18l366 0c10 0 18 8 18 18l0 366c0 10-8 18-18 18z m0 18l366 0c20 0 36-16 36-36l0-366c0-20-16-36-36-36l-366 0c-20 0-36 16-36 36l0 366c0 20 16 36 36 36z"/>
<glyph glyph-name="block-carousel" unicode="&#57355;" d="M494 110l0 292c10 0 18-8 18-18l0-256c0-10-8-18-18-18z m-37 274l0 18 37 0c10 0 18-8 18-18z m0-256l55 0c0-10-8-18-18-18l-37 0z m-439 274l0-292c-10 0-18 8-18 18l0 256c0 10 8 18 18 18z m37-274l0-18-37 0c-10 0-18 8-18 18z m0 256l-55 0c0 10 8 18 18 18l37 0z m260-125l58-92-117 0z m12 69c0 13-10 23-24 23-13 0-24-10-24-23 0-13 11-24 24-24 14 0 24 11 24 24z m-106-23l82-138-164 0z m-130 152c-10 0-18-8-18-18l0-366c0-10 8-18 18-18l330 0c10 0 18 8 18 18l0 366c0 10-8 18-18 18z m0 18l330 0c20 0 36-16 36-36l0-366c0-20-16-36-36-36l-330 0c-20 0-36 16-36 36l0 366c0 20 16 36 36 36z"/>
<glyph glyph-name="block-content" unicode="&#57359;" d="M274 384l110 0 0-91-110 0z m-146-146l256 0 0-19-256 0z m0-73l256 0 0-19-256 0z m0 146l110 0 0-18-110 0z m0 73l110 0 0-18-110 0z m-55 73c-10 0-18-8-18-18l0-366c0-10 8-18 18-18l366 0c10 0 18 8 18 18l0 366c0 10-8 18-18 18z m0 18l366 0c20 0 36-16 36-36l0-366c0-20-16-36-36-36l-366 0c-20 0-36 16-36 36l0 366c0 20 16 36 36 36z"/>
<glyph glyph-name="block-file-list" unicode="&#57361;" d="M475 416l0-27c0-2 0-3-2-4-1-1-3-1-4-1l-261 0c-2 0-3 0-5 1-1 1-2 2-2 4l0 27c0 1 1 2 2 3 2 1 3 2 5 2l261 0c1 0 3-1 4-2 2-1 2-2 2-3z m0-146l0-28c0-1 0-2-2-3-1-1-3-1-4-1l-261 0c-2 0-3 0-5 1-1 1-2 2-2 3l0 28c0 1 1 2 2 3 2 1 3 1 5 1l261 0c1 0 3 0 4-1 2-1 2-2 2-3z m0-147l0-27c0-2 0-3-2-4-1 0-3-1-4-1l-261 0c-2 0-3 1-5 1-1 1-2 2-2 4l0 27c0 1 1 2 2 3 2 1 3 2 5 2l261 0c1 0 3-1 4-2 2-1 2-2 2-3z m-420 316l0-73 73 0 0 73z m-9 18l91 0c5 0 9-4 9-9l0-91c0-5-4-10-9-10l-91 0c-5 0-9 5-9 10l0 91c0 5 4 9 9 9z m9-164l0-74 73 0 0 74z m-9 18l91 0c5 0 9-4 9-9l0-92c0-5-4-9-9-9l-91 0c-5 0-9 4-9 9l0 92c0 5 4 9 9 9z m9-165l0-73 73 0 0 73z m-9 19l91 0c5 0 9-5 9-10l0-91c0-5-4-9-9-9l-91 0c-5 0-9 4-9 9l0 91c0 5 4 10 9 10z"/>
<glyph glyph-name="block-form" unicode="&#57362;" d="M55 219l0-164 164 0 0 164z m0 19l164 0c11 0 19-8 19-19l0-164c0-10-8-18-19-18l-164 0c-10 0-18 8-18 18l0 164c0 11 8 19 18 19z m147-64l-13 13c-2 1-5 1-6 0l-64-64-22 23c-2 2-5 2-7 0l-12-13c-2-2-2-5 0-7l36-37c2-1 3-3 5-3 2 0 4 2 5 3l78 78c2 2 2 5 0 7m173-119c45 0 82 37 82 82 0 46-37 82-82 82-46 0-82-36-82-82 0-45 36-82 82-82z m0-18c-56 0-101 45-101 100 0 56 45 101 101 101 55 0 100-45 100-101 0-55-45-100-100-100z m46 100c0-25-21-46-46-46-25 0-46 21-46 46 0 25 21 46 46 46 25 0 46-21 46-46z m-46 156c45 0 82 36 82 82 0 45-37 82-82 82-46 0-82-37-82-82 0-46 36-82 82-82z m0-19c-56 0-101 45-101 101 0 55 45 100 101 100 55 0 100-45 100-100 0-56-45-101-100-101z m-320 183l0-164 164 0 0 164z m0 18l164 0c11 0 19-8 19-18l0-164c0-11-8-19-19-19l-164 0c-10 0-18 8-18 19l0 164c0 10 8 18 18 18z"/>
<glyph glyph-name="block-layout" unicode="&#57363;" d="M64 448l0-384 149 0 0 384z m0 21l149 0c12 0 22-9 22-21l0-384c0-12-10-21-22-21l-149 0c-12 0-21 9-21 21l0 384c0 12 9 21 21 21z m237-187l0-214 149 0 0 214z m0 21l149 0c12 0 21-10 21-21l0-214c0-12-9-21-21-21l-149 0c-12 0-22 9-22 21l0 214c0 11 10 21 22 21z m0 145l0-85 149 0 0 85z m0 21l149 0c12 0 21-9 21-21l0-85c0-12-9-22-21-22l-149 0c-12 0-22 10-22 22l0 85c0 12 10 21 22 21z"/>
<glyph glyph-name="block-media" unicode="&#57364;" d="M89 457c-19 0-34-15-34-34l0-334c0-19 15-34 34-34l334 0c19 0 34 15 34 34l0 334c0 19-15 34-34 34z m-4-18l342 0c7 0 12-5 12-12l0-342c0-7-5-12-12-12l-342 0c-7 0-12 5-12 12l0 342c0 7 5 12 12 12z m248-182l-118-66c-5-3-10-1-13 3 0 1-1 3-1 4l0 134c0 5 4 9 9 9 2 0 3 0 5-1l118-67c5-2 6-8 4-12-1-2-2-3-4-4z"/>
<glyph glyph-name="tag" unicode="&#57365;" d="M165 384c0 10-4 19-11 26-7 7-16 11-26 11-10 0-19-4-26-11-7-7-11-16-11-26 0-10 4-19 11-26 7-7 16-11 26-11 10 0 19 4 26 11 7 7 11 16 11 26z m304-165c0-10-3-18-10-25l-140-141c-8-7-17-10-26-10-11 0-19 3-26 10l-204 205c-8 7-14 16-19 29-5 12-7 23-7 33l0 119c0 10 3 18 10 26 8 7 16 10 26 10l119 0c10 0 21-2 33-7 13-5 22-11 30-19l204-204c7-7 10-16 10-26z"/>
<glyph glyph-name="tags" unicode="&#57366;" d="M119 375c0 10-3 18-10 25-6 6-14 10-24 10-9 0-17-4-24-10-6-7-10-15-10-25 0-9 4-17 10-24 7-6 15-10 24-10 10 0 18 4 24 10 7 7 10 15 10 24z m285-153c0-10-3-18-10-24l-131-131c-7-7-15-10-24-10-9 0-17 3-24 10l-191 191c-6 6-12 15-17 27-5 11-7 21-7 31l0 111c0 9 3 17 10 24 7 6 15 10 24 10l111 0c9 0 20-3 31-7 12-5 21-11 27-17l191-191c7-7 10-15 10-24z m102 0c0-10-3-18-9-24l-131-131c-7-7-15-10-25-10-6 0-11 1-15 4-4 2-9 6-15 12l126 125c6 6 10 14 10 24 0 9-4 17-10 24l-191 191c-7 6-16 12-27 17-11 4-22 7-31 7l59 0c10 0 20-3 32-7 11-5 20-11 27-17l191-191c6-7 9-15 9-24z"/>
<glyph glyph-name="checklist" unicode="&#57368;" d="M445 254l-25 25c-3 3-9 3-12 0l-52-53-60-60-47 47c-3 3-8 3-12 0l-24-25c-4-4-4-9 0-12l52-52 9-9 16-16c3-4 8-4 12 0l24 25 119 118c3 3 3 9 0 12z m-266-32l25 24c21 22 58 22 79 0l13-12 57 54 0 160-288 0 0-352 160 0-46 46c-22 22-22 58 0 80z m-18 194l160 0 0-32-160 0z m0-64l160 0 0-32-160 0z m-32-96l-32 0 0 32 32 0z m0 64l-32 0 0 32 32 0z m0 64l-32 0 0 32 32 0z m32-96l32 0 0-32-32 0z"/>
<glyph glyph-name="export" unicode="&#57369;" d="M384 108c0 0 0 28 0 28 0 0 51 42 51 42 0 0 0-96 0-96 0-7-2-13-7-18-6-5-12-8-18-8 0 0-384 0-384 0-7 0-13 3-18 8-5 5-8 11-8 18 0 0 0 282 0 282 0 7 2 13 7 18 5 5 11 7 19 7 0 0 147 0 147 0-11-8-21-16-30-25-9-9-16-15-20-20 0 0-5-6-5-6 0 0-67 0-67 0 0 0 0-230 0-230 0 0 333 0 333 0m-42 178c-57 0-98-7-124-21-26-14-53-45-82-93 0 3 0 7 1 11 0 5 2 15 4 29 3 14 7 28 12 40 4 13 12 27 22 43 10 16 22 29 36 40 14 12 32 21 55 29 23 8 48 12 76 12 0 0 0 80 0 80 0 0 170-128 170-128 0 0-170-133-170-133 0 0 0 91 0 91"/>
<glyph glyph-name="box" unicode="&#57370;" d="M471 461c4 0 8-2 11-5 3-3 4-6 4-11 0 0 0-61 0-61 0 0-460 0-460 0 0 0 0 61 0 61 0 5 1 8 4 11 3 3 7 5 11 5 0 0 430 0 430 0m-420-374c0 0 0 271 0 271 0 0 410 0 410 0 0 0 0-271 0-271 0-10-4-19-11-26-7-6-15-10-25-10 0 0-338 0-338 0-10 0-18 4-25 10-7 7-11 16-11 26m128 220c0 0 0-51 0-51 0 0 154 0 154 0 0 0 0 51 0 51 0 0-154 0-154 0"/>
<glyph glyph-name="language" unicode="&#57371;" d="M505 233c11-27 9-57-5-90-13-32-36-59-68-81-4 0-6 0-6 1-1 0-4 4-9 9-4 6-7 9-8 10 0 2 0 4 1 5 30 21 49 47 60 78 11 31 9 57-6 76-5-13-12-26-20-39-7-13-17-27-30-41-12-14-27-26-44-33-17-8-35-11-54-8-18 2-32 9-43 21-11 12-16 28-16 47 0 29 10 54 30 76 18 17 37 28 59 34 0 0-1 51-1 51-48-8-73-12-75-12-2-1-4 0-5 2 0 1-1 5-3 15-1 9-2 14-2 16-1 0-1 1 0 2 1 0 3 1 4 1 0 0 80 14 80 14 0 37-1 57-1 58 0 3 1 4 4 4 15 0 24 1 26 1 4 0 6-1 6-4 0 0 0-53 0-53 53 8 81 11 83 11 3 2 5 1 6-3 0 0 0-4 2-12 1-7 2-11 2-12 1-4 0-6-2-6 0 0-90-16-90-16 0 0 0-52 0-52 0 0 6 0 6 0 29 0 54-6 75-18 22-13 36-30 44-52m-189-81c10-2 20-1 32 3 0 0-2 109-2 109-12-4-22-11-31-20-15-15-22-34-22-56 0-22 7-34 23-36m63 14c9 8 19 20 29 35 10 15 18 28 23 40 5 12 6 19 4 21-13 6-29 9-49 9-1 0-2 0-3 0-2-1-3-1-3-1 0 0-1-104-1-104m-230 195c4-9 13-37 27-84 15-47 29-91 43-134 14-42 20-63 20-64 0-1 0-2-2-2 0 0-44 0-44 0-2 0-3 1-3 2 0 0-25 85-25 85 0 0-90 0-90 0-17-56-25-84-26-85 0-1-1-2-3-2 0 0-44 0-44 0-1 0-2 1-2 2 3 6 33 100 90 282 1 3 2 4 5 4 0 0 49 0 49 0 4 0 5-1 5-4m-66-161c0 0 74 0 74 0 0 0-37 135-37 135 0 0-37-135-37-135"/>
<glyph glyph-name="globe" unicode="&#57372;" d="M256 475c40 0 77-9 110-29 34-20 60-46 80-80 20-33 29-70 29-110 0-40-9-77-29-110-20-34-46-60-80-80-33-20-70-29-110-29-40 0-77 9-110 29-34 20-60 46-80 80-20 33-29 70-29 110 0 40 9 77 29 110 20 34 46 60 80 80 33 20 70 29 110 29z m78-148c0-1-1-2-2-3-2-2-3-3-4-3 0 0 1 1 1 2 0 1 1 2 1 3 1 1 1 2 1 2 2 1 4 2 7 4 2 1 7 2 15 3 6 2 11 1 14-3 0 1 1 2 3 4 2 2 3 3 4 3 1 1 2 1 4 2 3 0 4 1 5 2l0 6c-2 0-4 1-5 2-1 2-2 4-2 6 0 0 0-1-1-2 0 1-1 2-2 2-1 0-2 0-3 0-1-1-2-1-3 0-1 0-3 1-4 2-1 1-2 2-2 4-1 3-1 4-1 5-1 1-2 2-3 3-1 1-2 2-3 3 0 0 0 1 0 1-1 1-1 2-1 2-1 1-1 1-1 2-1 0-1 0-2 0-1 0-1 0-2-1-1-1-1-2-2-3-1-1-1-1-1-1-1 0-2 0-2 0-1 0-1 0-1 0-1 0-1-1-2-1 0 0-1-1-1-1-1 0-2-1-3-1-1 0-1 0-2 0 3 1 3 2 0 3-2 0-4 1-5 1 2 0 3 1 2 3 0 2-1 3-2 4l1 0c0 1-1 2-2 2-2 1-3 2-5 3-2 1-3 1-4 2-1 1-5 1-10 2-5 1-8 1-9 0-1-1-1-2-1-3 0 0 0-2 1-4 1-1 1-3 1-3 0-1 0-3-2-4-1-1-2-2-2-3 0-2 2-3 4-5 3-1 4-3 3-6 0-1-2-3-4-4-3-2-4-3-5-4-1-1-1-3 0-5 0-2 1-4 3-5 0 0 0-1 0-1 0 0 0-1-1-1 0-1-1-1-1-1-1-1-2-1-2-1l-1-1c-2-1-4 0-6 2-2 2-3 4-4 7-1 5-3 8-4 9-5 1-8 1-9-1-1 3-5 5-11 8-5 2-11 2-17 1 1 0 1 2 0 4-1 3-3 4-5 4 0 1 1 3 1 5 0 2 0 3 0 4 1 2 2 4 3 6 1 0 1 1 2 3 2 1 2 2 3 3 1 2 1 2 2 2 6-1 11 0 14 3 1 1 2 3 3 5 1 2 2 4 3 5 2 1 3 2 4 2 1-1 2-1 4-2 2-1 3-1 4-1 3-1 5 0 5 3 0 2-1 4-2 5 2 0 2 2 1 5-1 2-2 2-3 3-2 1-5 0-7-2-2 0-2-1 0-2 0 0-1-1-3-3-1-2-3-4-4-5-2-1-3-1-5 2 0 0-1 1-1 3-1 3-2 4-3 4-2 0-3-1-5-4 1 2 0 3-3 4-3 2-5 2-7 3 4 2 3 4-2 7-1 1-3 2-6 2-2 0-4 0-5-1-1-2-2-3-2-4 0-1 0-1 1-2 1-1 2-1 3-2 1 0 2 0 4-1 1 0 2 0 2-1 3-1 4-3 2-4 0 0-1 0-2-1-1 0-2 0-3-1-1 0-2-1-2-1-1-1-1-2 0-4 1-2 0-3-1-4-1 1-1 3-2 5-1 2-2 4-2 5 1-2-1-3-7-2l-3 0c-1 0-2 0-5 0-2-1-4-1-6-1-1 1-2 1-3 3-1 1-1 3 0 5 0 1 0 1 1 1-1 1-2 1-3 3-2 1-3 2-3 2-9-3-18-7-27-12 1 0 2 0 3 1 1 0 2 1 4 2 2 0 2 1 3 1 6 3 10 3 12 2l1 2c3-3 5-6 6-8-1 1-4 1-9 1-3-1-5-3-6-4 1-2 2-4 2-5-1 1-2 2-4 3-1 1-3 2-4 3-1 1-3 1-4 2-3 0-5-1-6-1-28-15-51-36-68-63 2-1 3-2 4-2 1-1 1-1 1-3 0-2 1-3 1-3 0-1 1 0 3 1 2-2 2-4 1-6 0 0 5-2 13-7 3-4 5-6 6-6 0-3-1-4-3-6 0 1-1 2-3 3-1 1-2 2-2 1-1-1-1-3 0-5 1-3 2-4 3-4-1 0-2-1-3-4 0-3-1-7-1-10 0-4 0-6 0-7l1 0c-1-3 0-6 1-10 2-5 4-6 6-6-2 0 0-5 6-12 1-2 2-3 2-3 1 0 2-1 4-2 2-1 3-2 4-3 1-1 2-2 3-3 1-1 2-3 3-6 1-3 2-6 4-7-1-1 0-3 3-6 2-2 3-4 3-6-1 0-1 0-1 0 0-1-1-1-1-1 1-1 2-2 5-4 2-1 3-2 4-3 0-1 0-2 1-3 0-2 0-3 0-3 1-1 2-1 3-1 0 4-2 10-7 18-3 4-5 7-5 8-1 1-1 2-2 4 0 2 0 4-1 5 1 0 1-1 2-1 1 0 1 0 2-1 1 0 2-1 2-1 1 0 1-1 1-1-1-1 0-3 1-5 1-2 2-4 3-5 1-2 3-3 5-6 2-2 3-3 3-3 1-1 3-3 4-6 2-2 2-4 0-4 2 0 4-1 6-3 2-1 4-3 5-5 1-2 2-4 2-8 1-3 1-5 2-7 0-1 1-2 2-3 1-2 2-3 4-3l4-2 4-2c1-1 3-2 5-3 3-2 5-3 6-4 2 0 4-1 5-1 1 0 2 0 4 1 2 0 3 1 4 1 3 0 5-1 8-4 3-4 5-6 6-6 7-4 12-5 16-4-1 0 0 0 0-2 0-1 1-2 2-4 1-2 2-3 3-4 1-1 1-2 1-3 1-1 3-2 6-4 2-2 4-3 5-4 1 0 2 1 2 2-1-1 0-3 2-5 2-3 3-4 5-3 3 0 4 3 4 9-6-3-11-1-14 5 0 0 0 1-1 2 0 0-1 1-1 2 0 1-1 2-1 2 0 1 0 2 0 3 0 0 1 0 2 0 1 0 2 1 3 1 0 1 0 2-1 4-1 2-1 3-1 4 0 1-1 3-3 5-2 3-3 4-4 5-1-2-2-3-4-3-2 1-4 1-5 3 0 0 0-1 0-2-1 0-1-1-1-1-2 0-4 0-4 0 0 0 0 2 1 5 0 3 0 5 1 6 0 1 0 2 1 4 1 1 2 3 2 4 1 1 1 2 2 3 0 2-1 2-2 3-1 1-2 1-5 1-3 0-6-2-7-6 0 0-1-1-1-3 0-1-1-2-1-3-1-1-2-2-3-2-1-1-4-1-7-1-3 0-5 1-7 2-2 1-4 4-6 8-2 4-3 8-3 11 0 1 0 4 1 7 0 3 1 6 1 7 0 2-1 4-2 7 1 1 2 2 3 3 1 1 2 2 3 3 0 0 0 0 1 0 0 1 1 1 1 0 1 0 1 0 1 1 1 0 1 1 1 2 0 0 0 0-1 0-1 1-1 1-1 1 1 0 4 0 8 1 4 1 7 0 8-1 3-2 5-2 6 1 0 0 0 1-1 3 0 1 0 2 0 3 1-5 4-6 9-2 0-1 2-1 4-2 2 0 4 0 5-1 1 0 1-1 2-2 1 0 1-1 2-1 0 0 0 0 1 0 1 1 1 1 2 2 2-3 3-5 4-7 2-7 4-12 5-12 2-1 3-1 3-1 1 0 2 1 2 3 0 1 0 3 0 4 0 1-1 2-1 3l0 3 0 5 0 2c-3 1-5 2-6 4 0 1 0 3 1 5 1 2 2 3 4 5 0 0 1 1 2 1 2 1 3 1 5 2 1 1 3 2 3 2 4 4 6 7 5 10 1 0 2 1 3 3 0 0-1 0-2 1 0 0-1 1-2 1 0 1-1 1-1 1 2 1 2 2 1 4 1 1 1 2 2 3 0 2 1 3 2 3 2-2 4-2 6 0 1 1 1 3 0 4 1 2 3 3 6 3 3 1 5 2 5 3 2 0 2 0 3 1 0 0 0 1 0 3 0 2 0 3 1 3 0 1 2 2 4 3 2 1 3 1 4 1l5 4c0 0 0 1 0 1 3-1 6 0 8 3 2 2 2 4-1 6 0 1 0 2-1 2-1 1-3 1-4 2 0 0 1 0 3 0 1 0 2 0 3 0 3 2 2 4-2 5-3 1-7 0-12-3z m-46-251c39 7 72 25 100 54-1 1-2 1-4 1-1 1-3 1-3 1-4 2-6 2-7 3 0 1 0 2-1 3 0 1-1 2-2 3-1 0-2 1-4 2-1 1-2 2-3 2 0 1-1 1-2 2-1 1-1 1-2 1 0 1-1 1-2 2-1 0-2 0-2 0-1 0-2 0-3 0l-1 0c-1 0-1-1-2-1 0 0-1-1-1-1-1 0-1 0-1-1 0 0 0 0 0 0-4 3-8 5-11 6-1 0-2 1-3 1-1 1-2 2-3 2-1 1-2 1-3 1-1 0-2-1-3-2-1-1-1-3-2-4 0-2 0-4 0-4-1 1-1 2 0 5 1 2 1 4 0 5 0 1-1 2-3 1-1 0-2 0-3-1-1 0-2-1-3-2-2-1-2-2-3-2 0 0-1-1-2-2-2-1-2-1-3-2 0-1-1-2-1-3-1-2-1-3-2-3 0 0-1 1-3 1-2 1-3 1-3 2 1-2 1-5 1-10 1-5 1-8 2-11 1-6 0-10-4-14-5-4-8-8-8-11-1-4 0-7 3-7 0-2 0-4-2-6-1-3-2-5-2-6 0-2 0-3 1-5z"/>
<glyph glyph-name="eye-with-line" unicode="&#57373;" d="M450 448c-9 9-23 9-32 0l-356-355c-9-9-9-24 0-32 9-9 23-9 32 0l356 355c9 9 9 24 0 32z m-351-273l58 58c-1 7-2 14-2 22 0 54 45 98 101 98 7 0 13-1 19-2l27 27c-14 2-30 4-46 4-149 0-228-110-228-127 0-10 25-48 71-80z m314 159l-58-58c1-7 2-14 2-21 0-55-45-98-101-98-6 0-13 0-19 1l-27-27c14-2 30-4 46-4 149 0 228 110 228 128 0 9-24 47-71 79z"/>
<glyph glyph-name="translatable" unicode="&#57374;" d="M51 410c-14 0-25-12-25-26l0-256c0-14 11-26 25-26l410 0c14 0 25 12 25 26l0 256c0 14-11 26-25 26z m0 25l410 0c28 0 51-23 51-51l0-256c0-28-23-51-51-51l-410 0c-28 0-51 23-51 51l0 256c0 28 23 51 51 51z m359-190c7-18 6-38-3-59-9-21-24-39-45-54-3 0-4 0-4 1-1 0-3 3-6 6-3 4-5 6-5 6 0 2 0 3 0 4 20 14 33 31 40 51 7 21 6 38-4 50-3-8-8-17-13-25-5-9-11-18-20-27-8-10-18-18-29-22-11-5-23-7-36-5-12 1-21 5-28 13-7 8-11 19-11 31 0 20 7 36 20 51 12 11 25 18 39 22 0 0-1 34-1 34-31-6-48-8-49-8-1-1-3 0-3 1 0 1-1 3-2 10-1 6-2 9-2 10 0 0 0 1 0 2 1 0 2 0 3 0 0 0 53 10 53 10 0 24-1 37-1 38 0 2 1 3 3 3 10 0 16 0 17 0 3 0 4 0 4-2 0 0 0-35 0-35 35 5 53 7 55 7 2 1 3 1 4-2 0 0 0-3 1-8 1-5 1-7 1-8 1-3 0-4-1-4 0 0-59-10-59-10 0 0 0-35 0-35 0 0 3 0 3 0 20 0 36-4 50-12 14-8 24-19 29-34m-125-53c7-2 13-1 21 2 0 0-1 72-1 72-8-3-14-8-20-14-10-10-15-22-15-37 0-14 5-22 15-23m42 9c6 5 12 13 19 23 7 10 12 18 15 26 3 8 4 13 3 14-9 4-19 6-33 6 0 0-1 0-1 0-2 0-2 0-2 0 0 0-1-69-1-69m-152 129c3-6 9-25 18-56 10-31 19-60 28-88 10-28 13-42 13-43 0 0 0-1-1-1 0 0-29 0-29 0-1 0-2 1-2 1 0 0-16 57-16 57 0 0-60 0-60 0-11-37-16-56-17-57 0 0-1-1-2-1 0 0-29 0-29 0-1 0-1 1-1 1 2 4 22 66 59 187 1 2 2 2 3 2 0 0 33 0 33 0 2 0 3 0 3-2m-43-107c0 0 48 0 48 0 0 0-24 89-24 89 0 0-24-89-24-89"/>
<glyph glyph-name="pulse" unicode="&#57375;" d="M400 256l-86 83-71-99-35 221-100-205-76 0 0-64 115 0 29 58 29-173 115 163 51-48 109 0 0 64z"/>
<glyph glyph-name="dot-3" unicode="&#57;" d="M77 312c16 0 29-5 40-16 11-11 16-24 16-40 0-15-5-28-16-39-11-12-24-17-40-17-16 0-29 5-40 17-11 11-17 24-17 39 0 16 6 29 17 40 11 11 24 16 40 16m179 0c16 0 29-5 40-16 11-11 16-24 16-40 0-15-5-28-17-39-11-12-24-17-39-17-15 0-28 5-39 17-12 11-17 24-17 39 0 16 5 29 16 40 11 11 24 16 40 16m179 0c16 0 29-5 40-16 11-11 17-24 17-40 0-15-6-28-17-39-11-12-24-17-40-17-15 0-29 5-40 17-11 11-16 24-16 39 0 16 5 29 16 40 11 11 25 16 40 16"/>
<glyph glyph-name="code" unicode="&#51;" d="M195 402c5-4 8-10 8-16 0-6-3-11-8-15 0 0-126-115-126-115 0 0 126-116 126-116 5-4 8-9 8-15 0-6-3-12-8-16-11-11-21-11-31 0 0 0-164 147-164 147 0 0 164 146 164 146 10 11 20 11 31 0m154 0c0 0 163-146 163-146 0 0-163-147-163-147-11-11-21-11-32 0-10 10-10 21 0 31 0 0 127 116 127 116 0 0-127 115-127 115-10 10-10 21 0 31 11 11 21 11 32 0"/>
<glyph glyph-name="external-link" unicode="&#64;" d="M402 247l0-92c0-22-8-42-24-58-16-16-35-24-58-24l-238 0c-22 0-42 8-58 24-16 16-24 36-24 58l0 238c0 23 8 42 24 58 16 16 36 24 58 24l201 0c3 0 5 0 7-2 2-2 3-4 3-7l0-18c0-3-1-5-3-7-2-1-4-2-7-2l-201 0c-12 0-23-5-32-14-9-9-13-19-13-32l0-238c0-12 4-23 13-32 9-9 20-13 32-13l238 0c13 0 23 4 32 13 9 9 14 20 14 32l0 92c0 3 1 5 2 6 2 2 4 3 7 3l18 0c3 0 5-1 7-3 1-1 2-3 2-6z m110 247l0-147c0-5-2-9-5-12-4-4-8-6-13-6-5 0-10 2-13 6l-50 50-187-186c-2-2-4-3-6-3-3 0-5 1-7 3l-32 32c-2 2-3 4-3 7 0 2 1 4 3 6l186 187-50 50c-4 3-6 8-6 13 0 5 2 9 6 13 3 3 7 5 12 5l147 0c5 0 9-2 13-5 3-4 5-8 5-13z"/>
<glyph glyph-name="explore-addons" unicode="&#57376;" d="M455 138c-4-6-10-12-17-17-8-4-16-6-25-7-1 0-2 0-2 0-20 0-38 11-48 27-15 26-6 60 20 75 9 4 18 7 28 7 19 0 37-10 47-27 10-19 9-41-3-58z m41-79l-28 49c0 1-1 1-1 2 5 4 9 10 13 16 2 5 5 9 7 14 0 2 1 3 1 5 1 2 2 5 2 8 1 2 1 4 1 6 1 3 1 5 1 8 0 2 0 5 0 7 0 3-1 5-1 7 0 3-1 6-2 9 0 2-1 4-1 5-2 5-4 10-7 14-15 27-42 41-70 41-14 0-28-3-41-11-39-22-53-72-30-111 15-26 42-41 71-41 0 0 0 0 0 0 7 0 14 1 21 3 0-1 0-2 1-2l28-49c4-7 11-11 18-11 3 0 7 1 10 3 10 6 13 18 7 28z m-398 272l129-75 0-149-129 74z m149 110l130-75-130-75-129 75z m62-310l-41-24 0 149 129 75 0-55c4 1 9 1 14 1 9 0 18-1 27-3l0 88c0 10-5 19-14 24l-163 94c-4 2-9 4-14 4-4 0-9-2-13-4l-164-94c-8-5-13-14-13-24l0-188c0-10 5-19 13-24l164-94c4-3 9-4 13-4 5 0 10 1 14 4l69 40c-5 5-10 11-14 18-3 5-5 11-7 17z"/>
<glyph glyph-name="share" unicode="&#57377;" d="M512 329c0-5-2-9-5-13l-147-146c-3-4-8-5-13-5-5 0-9 1-12 5-4 4-6 8-6 13l0 73-64 0c-19 0-35-1-50-2-15-1-29-3-44-6-15-3-27-7-38-12-11-5-21-12-30-20-9-8-17-18-23-29-6-11-11-24-14-39-3-16-5-33-5-52 0-10 1-22 2-35 0-1 0-4 0-7 1-3 1-6 1-7 0-3-1-6-2-8-2-1-4-2-7-2-3 0-6 1-8 4-1 2-3 4-4 7-1 2-2 5-4 8-1 4-2 6-3 7-24 54-36 97-36 129 0 38 5 70 15 95 31 77 114 115 250 115l64 0 0 73c0 5 2 10 6 13 3 4 7 6 12 6 5 0 10-2 13-6l147-146c3-4 5-8 5-13z"/>
<glyph glyph-name="calendar" unicode="&#57379;" d="M435 435c15 0 27-5 37-15 9-10 14-22 14-36 0 0 0-307 0-307 0-14-5-26-14-36-10-10-22-15-37-15 0 0-358 0-358 0-14 0-26 5-36 15-10 10-15 22-15 36 0 0 0 307 0 307 0 14 5 26 15 36 10 10 22 15 36 15 0 0 23 0 23 0 0 0 0-51 0-51 0 0 82 0 82 0 0 0 0 51 0 51 0 0 149 0 149 0 0 0 0-51 0-51 0 0 82 0 82 0 0 0 0 51 0 51 0 0 22 0 22 0m0-358c0 0 0 205 0 205 0 0-358 0-358 0 0 0 0-205 0-205 0 0 358 0 358 0m-276 409c0 0 0-87 0-87 0 0-36 0-36 0 0 0 0 87 0 87 0 0 36 0 36 0m230 0c0 0 0-87 0-87 0 0-36 0-36 0 0 0 0 87 0 87 0 0 36 0 36 0"/>
<glyph glyph-name="universal-access" unicode="&#57380;" d="M256 448c-106 0-192-86-192-192 0-106 86-192 192-192 106 0 192 86 192 192 0 106-86 192-192 192z m0-333c-78 0-141 63-141 141 0 78 63 141 141 141 78 0 141-63 141-141 0-78-63-141-141-141z m22 230c0-13-11-24-24-24-13 0-24 11-24 24 0 14 11 25 24 25 13 0 24-11 24-25z m59-80l-46 46c0 0 0 1 0 1l0 0 0 0c-2 2-5 3-8 3 0 0 0 0-1 0l-53 0c0 0 0 0 0 0-3 0-6-1-8-3l0 0 0 0c0-1 0-1 0-1l-46-46 0 0c-2-2-3-4-3-7 0-6 4-10 10-10 3 0 5 1 7 3l0 0 34 34 0 0c1 0 2 1 3 1 1 0 3-2 3-3l0-126c0-6 5-12 12-12 6 0 12 6 12 12l0 63 0 0c0 2 1 4 3 4 2 0 3-2 3-4l0 0 0-63c0-6 6-12 12-12 7 0 12 6 12 12l0 125 0 0c0 0 0 1 0 1 0 2 2 3 3 3 1 0 2 0 2-1l0 0 1 0c0 0 0 0 0 0l34-34 0 0c2-2 4-3 7-3 6 0 10 4 10 10 0 3-1 5-3 7z"/>
<glyph glyph-name="cart" unicode="&#57378;" d="M102 77c0 13 6 25 16 36 10 10 22 15 36 15 14 0 26-5 36-15 10-11 15-23 15-36 0-15-5-27-15-37-10-9-22-14-36-14-14 0-26 5-36 14-10 10-16 22-16 37m256 0c0 13 6 25 16 36 10 10 22 15 36 15 14 0 26-5 36-15 10-11 15-23 15-36 0-15-5-27-15-37-10-9-22-14-36-14-14 0-26 5-36 14-10 10-16 22-16 37m-164 121c-13-4-19-8-18-12 1-5 8-7 23-7 0 0 287 0 287 0 0 0 0-39 0-39 0-7-3-10-10-10 0 0-66 0-66 0 0 0-256 0-256 0 0 0-13 0-13 0-7 0-10 3-10 10 0 0 0 39 0 39 0 0-5 24-5 24 0 0-50 232-50 232 0 0-50 0-50 0 0 0 0 41 0 41 0 7 3 10 10 10 0 0 80 0 80 0 7 0 10-3 10-10 0 0 0-44 0-44 0 0 360 0 360 0 0 0 0-140 0-140 0-8-3-12-9-13 0 0-283-81-283-81"/>
<glyph glyph-name="credit-card" unicode="&#57385;" d="M469 461c12 0 22-4 30-13 9-8 13-18 13-30l0-324c0-12-4-22-13-30-8-9-18-13-30-13l-426 0c-12 0-22 4-30 13-9 8-13 18-13 30l0 324c0 12 4 22 13 30 8 9 18 13 30 13z m-426-34c-3 0-5-1-6-3-2-2-3-4-3-6l0-60 444 0 0 60c0 2-1 4-3 6-1 2-3 3-6 3z m426-342c3 0 5 1 6 3 2 2 3 4 3 6l0 162-444 0 0-162c0-2 1-4 3-6 1-2 3-3 6-3z m-401 34l0 35 69 0 0-35z m103 0l0 35 102 0 0-35z"/>
<glyph glyph-name="news" unicode="&#57381;" d="M256 352l-96 0 0-96 96 0z m32-160l0-32-160 0 0 32z m0 192l0-160-160 0 0 160z m160-192l0-32-128 0 0 32z m0 64l0-32-128 0 0 32z m0 64l0-32-128 0 0 32z m0 64l0-32-128 0 0 32z m-384-240l0 240-32 0 0-240c0-4 2-8 5-11 3-3 7-5 11-5 4 0 8 2 11 5 3 3 5 7 5 11z m416 0l0 272-384 0 0-272c0-6-1-11-3-16l371 0c4 0 8 2 11 5 3 3 5 7 5 11z m32 304l0-304c0-13-5-25-14-34-9-9-21-14-34-14l-416 0c-13 0-25 5-34 14-9 9-14 21-14 34l0 272 64 0 0 32z"/>
<glyph glyph-name="p-event" unicode="&#57382;" d="M66 66l377 0 0 275-377 0z m103 326l0 77c0 3-1 5-2 6-2 2-4 3-6 3l-18 0c-2 0-4-1-6-3-1-1-2-3-2-6l0-77c0-3 1-5 2-6 2-2 4-3 6-3l18 0c2 0 4 1 6 3 1 1 2 3 2 6z m206 0l0 77c0 3-1 5-3 6-1 2-3 3-6 3l-17 0c-2 0-4-1-6-3-2-1-2-3-2-6l0-77c0-3 0-5 2-6 2-2 4-3 6-3l17 0c3 0 5 1 6 3 2 1 3 3 3 6z m103 17l0-343c0-9-4-17-10-24-7-7-15-10-25-10l-377 0c-9 0-17 3-24 10-7 7-10 15-10 24l0 343c0 9 3 17 10 24 7 7 15 10 24 10l35 0 0 26c0 12 4 22 12 30 9 9 19 13 30 13l18 0c11 0 21-4 30-13 8-8 12-18 12-30l0-26 103 0 0 26c0 12 4 22 13 30 8 9 18 13 30 13l17 0c12 0 22-4 31-13 8-8 12-18 12-30l0-26 34 0c10 0 18-3 25-10 6-7 10-15 10-24z"/>
<glyph glyph-name="p-event-alt" unicode="&#57383;" d="M66 66l77 0 0 77-77 0z m95 0l85 0 0 77-85 0z m-95 95l77 0 0 85-77 0z m95 0l85 0 0 85-85 0z m-95 102l77 0 0 78-77 0z m197-197l86 0 0 77-86 0z m-102 197l85 0 0 78-85 0z m205-197l77 0 0 77-77 0z m-103 95l86 0 0 85-86 0z m-94 231l0 77c0 2-1 4-2 6-2 2-4 3-6 3l-18 0c-2 0-4-1-6-3-1-2-2-4-2-6l0-77c0-2 1-4 2-6 2-2 4-3 6-3l18 0c2 0 4 1 6 3 1 2 2 4 2 6z m197-231l77 0 0 85-77 0z m-103 102l86 0 0 78-86 0z m103 0l77 0 0 78-77 0z m9 129l0 77c0 2-1 4-3 6-1 2-3 3-6 3l-17 0c-2 0-4-1-6-3-2-2-2-4-2-6l0-77c0-2 0-4 2-6 2-2 4-3 6-3l17 0c3 0 5 1 6 3 2 2 3 4 3 6z m103 17l0-343c0-9-4-17-10-24-7-7-15-10-25-10l-377 0c-9 0-17 3-24 10-7 7-10 15-10 24l0 343c0 9 3 17 10 24 7 7 15 10 24 10l35 0 0 26c0 12 4 22 12 30 9 9 19 13 30 13l18 0c11 0 21-4 30-13 8-8 12-18 12-30l0-26 103 0 0 26c0 12 4 22 13 30 8 9 18 13 30 13l17 0c12 0 22-4 31-13 8-8 12-18 12-30l0-26 34 0c10 0 18-3 25-10 6-7 10-15 10-24z"/>
<glyph glyph-name="p-article" unicode="&#57367;" d="M313 512c4 0 9-1 12-5l118-120c4-3 5-8 5-12l0-327c0-27-21-48-48-48l-320 0c-27 0-48 21-48 48l0 416c0 26 21 48 48 48z m103-152l-70 0c-27 0-48 21-48 48l0 72-218 0c-9 0-16-7-16-16l0-416c0-9 7-16 16-16l320 0c9 0 16 7 16 16z m-86 97l0-49c0-9 7-16 16-16l48 0z m-170-73l0-64 64 0 0 64z m-32 32l128 0 0-128-128 0z m0-192l0 32 224 0 0-32z m0-64l0 32 224 0 0-32z"/>
<glyph glyph-name="p-articles" unicode="&#57384;" d="M313 512c4 0 9-1 12-5l118-120c4-3 5-8 5-12l0-327c0-27-21-48-48-48l-320 0c-27 0-48 21-48 48l0 416c0 27 21 48 48 48z m103-152l-70 0c-27 0-48 21-48 48l0 72-218 0c-9 0-16-7-16-16l0-416c0-9 7-16 16-16l320 0c9 0 16 7 16 16z m-86 97l0-49c0-9 7-16 16-16l48 0z m-202-137l96 0 0-96-96 0z m128-32l0 32 96 0 0-32z m0-64l0 32 96 0 0-32z m-128-32l96 0 0-96-96 0z m128-32l0 32 96 0 0-32z m0-64l0 32 96 0 0-32z"/>
<glyph glyph-name="p-document" unicode="&#57386;" d="M313 512c4 0 9-1 12-5l118-120c4-3 5-8 5-12l0-327c0-27-21-48-48-48l-320 0c-27 0-48 21-48 48l0 416c0 26 21 48 48 48z m103-152l-70 0c-27 0-48 21-48 48l0 72-218 0c-9 0-16-7-16-16l0-416c0-9 7-16 16-16l320 0c9 0 16 7 16 16z m-86 97l0-49c0-9 7-16 16-16l48 0z m-202-201l0 32 224 0 0-32z m0-64l0 32 224 0 0-32z m0 128l0 32 128 0 0-32z"/>
<glyph glyph-name="p-code" unicode="&#57387;" d="M208 272l-81-61 81-60 0-48-112 84 0 49 112 84z m64-121l81 60-81 61 0 48 112-84 0-49-112-84z m41 361c4 0 9-1 12-5l118-120c4-3 5-8 5-12l0-327c0-27-21-48-48-48l-320 0c-27 0-48 21-48 48l0 416c0 26 21 48 48 48z m103-152l-70 0c-27 0-48 21-48 48l0 72-218 0c-9 0-16-7-16-16l0-416c0-9 7-16 16-16l320 0c9 0 16 7 16 16z m-86 97l0-49c0-9 7-16 16-16l48 0z"/>
<glyph glyph-name="p-error" unicode="&#57388;" d="M313 512c4 0 9-1 12-5l118-120c4-3 5-8 5-12l0-327c0-27-21-48-48-48l-320 0c-27 0-48 21-48 48l0 416c0 26 21 48 48 48z m103-152l-70 0c-27 0-48 21-48 48l0 72-218 0c-9 0-16-7-16-16l0-416c0-9 7-16 16-16l320 0c9 0 16 7 16 16z m-86 97l0-49c0-9 7-16 16-16l48 0z m-122-41l64 0-16-192-32 0z m32-320c27 0 48 21 48 48 0 27-21 48-48 48-27 0-48-21-48-48 0-27 21-48 48-48z"/>
<glyph glyph-name="p-cart" unicode="&#57389;" d="M151 0c-22 0-39 17-39 39 0 21 17 39 39 39 21 0 39-18 39-39 0-22-18-39-39-39z m251 0c-21 0-39 17-39 39 0 21 18 39 39 39 22 0 39-18 39-39 0-22-17-39-39-39z m-356 480l-78 0c-9 0-16 7-16 16 0 9 7 16 16 16l91 0c8 0 15-5 16-13l20-101 376 0c10 0 17-9 16-19l-37-192c-6-29-32-50-61-50l-222 0c-30 0-56 21-62 50l-38 191c0 0 0 1-1 1z m56-114l34-173c3-14 16-24 30-24l223 0c14 0 27 10 30 24l33 173z"/>
<glyph glyph-name="p-list" unicode="&#57390;" d="M313 512c4 0 9-1 12-5l118-120c4-3 5-8 5-12l0-327c0-27-21-48-48-48l-320 0c-27 0-48 21-48 48l0 416c0 26 21 48 48 48z m103-152l-70 0c-27 0-48 21-48 48l0 72-218 0c-9 0-16-7-16-16l0-416c0-9 7-16 16-16l320 0c9 0 16 7 16 16z m-86 97l0-49c0-9 7-16 16-16l48 0z m-202-169l32 0 0-32-32 0z m0-64l32 0 0-32-32 0z m0-64l32 0 0-32-32 0z m64 96l0 32 176 0 0-32z m0-64l0 32 176 0 0-32z m0-64l0 32 176 0 0-32z"/>
<glyph glyph-name="p-archive" unicode="&#57392;" d="M448 355c0 9 7 16 16 16 9 0 16-7 16-16l0-307c0-9-7-16-16-16l-416 0c-9 0-16 7-16 16l0 307c0 9 7 16 16 16 9 0 16-7 16-16l0-291 384 0z m-416 93l0-77 448 0 0 77z m-16 32l480 0c9 0 16-7 16-16l0-109c0-9-7-16-16-16l-480 0c-9 0-16 7-16 16l0 109c0 9 7 16 16 16z m192-224c-9 0-16 7-16 16 0 9 7 16 16 16l112 0c9 0 16-7 16-16 0-9-7-16-16-16z"/>
<glyph glyph-name="p-news-item" unicode="&#57393;" d="M256 352l-96 0 0-96 96 0z m0-160l0-32-128 0 0 32z m32 192l0-160-160 0 0 160z m160-64l0-32-128 0 0 32z m0 64l0-32-128 0 0 32z m-384-240l0 240-32 0 0-240c0-4 2-8 5-11 3-3 7-5 11-5 4 0 8 2 11 5 3 3 5 7 5 11z m416 0l0 32 32 0 0 96-32 0 0 144-384 0 0-272c0-6-1-11-3-16l99 0 0-32 225 0 0 32 47 0c4 0 8 2 11 5 3 3 5 7 5 11z m32 304l0-304c0-13-5-25-14-34-9-9-21-14-34-14l-416 0c-13 0-25 5-34 14-9 9-14 21-14 34l0 272 64 0 0 32z m-256-448l224 208-64 64-224-208 0-64z"/>
<glyph glyph-name="p-multi" unicode="&#57391;" d="M56 416c-7 0-12-2-17-7-5-5-7-10-7-17l0-368c0-7 2-12 7-17 5-5 10-7 17-7l240 0c7 0 12 2 17 7 5 5 7 10 7 17l0 72 136 0c7 0 12 2 17 7 5 5 7 10 7 17l0 232c0 7-2 14-5 22-3 8-7 14-12 19l-102 102c-5 5-11 9-19 12-8 3-15 5-22 5l-104 0c-7 0-12-2-17-7-5-5-7-10-7-17l0-82c-11 7-22 10-32 10z m136-53l75-75-75 0z m160 96l75-75-75 0z m-49-162l-79 79 0 104 96 0 0-104c0-7 2-12 7-17 5-5 10-7 17-7l104 0 0-224-128 0 0 128c0 7-2 14-5 22-3 8-7 14-12 19z m-239-265l0 352 96 0 0-104c0-7 2-12 7-17 5-5 10-7 17-7l104 0 0-224z"/>
<glyph glyph-name="page" unicode="&#57394;" d="M313 512c4 0 9-1 12-5l118-120c4-3 5-8 5-12l0-327c0-27-21-48-48-48l-320 0c-27 0-48 21-48 48l0 416c0 26 21 48 48 48z m103-152l-70 0c-27 0-48 21-48 48l0 72-218 0c-9 0-16-7-16-16l0-416c0-9 7-16 16-16l320 0c9 0 16 7 16 16z m-86 97l0-49c0-9 7-16 16-16l48 0z"/>
<glyph glyph-name="p-a" unicode="&#57395;" d="M313 512c4 0 9-1 12-5l118-120c4-3 5-8 5-12l0-327c0-27-21-48-48-48l-320 0c-27 0-48 21-48 48l0 416c0 26 21 48 48 48z m103-152l-70 0c-27 0-48 21-48 48l0 72-218 0c-9 0-16-7-16-16l0-416c0-9 7-16 16-16l320 0c9 0 16 7 16 16z m-86 97l0-49c0-9 7-16 16-16l48 0z m-120-273l59 0-29 84-1 0z m4 140l52 0 85-228-52 0-17 51-86 0-17-51-51 0z"/>
<glyph glyph-name="p-a-b" unicode="&#57396;" d="M313 512c4 0 9-1 12-5l118-120c4-3 5-8 5-12l0-327c0-27-21-48-48-48l-320 0c-27 0-48 21-48 48l0 416c0 26 21 48 48 48z m103-152l-70 0c-27 0-48 21-48 48l0 72-218 0c-9 0-16-7-16-16l0-416c0-9 7-16 16-16l320 0c9 0 16 7 16 16z m-86 97l0-49c0-9 7-16 16-16l48 0z m-155-154l50 0-24 70-1 0z m4 117l44 0 56-149-115 0-15-43-42 0z m68-242l43 0c7 0 13 2 18 6 5 3 8 9 8 17 0 5-1 8-3 11-1 3-4 5-6 7-3 2-6 3-10 3-3 1-7 1-10 1l-40 0z m-42 78l90 0c9 0 18-1 25-2 8-2 14-5 20-8 5-4 9-9 12-15 3-6 4-14 4-23 0-9-2-17-6-24-5-6-11-12-20-16 12-3 21-9 27-18 6-8 9-18 9-30 0-10-2-18-6-25-4-8-9-13-15-18-7-4-14-8-22-10-8-2-17-3-25-3l-93 0z m42-159l45 0c4 0 8 0 12 1 4 1 7 2 10 4 3 2 5 4 7 8 2 3 2 7 2 12 0 10-2 17-8 21-6 4-13 7-22 7l-46 0z"/>
<glyph glyph-name="p-alt" unicode="&#57397;" d="M313 512c4 0 9-1 12-5l118-120c4-3 5-8 5-12l0-327c0-27-21-48-48-48l-320 0c-27 0-48 21-48 48l0 416c0 26 21 48 48 48z m103-152l-70 0c-27 0-48 21-48 48l0 72-218 0c-9 0-16-7-16-16l0-416c0-9 7-16 16-16l320 0c9 0 16 7 16 16z m-86 97l0-49c0-9 7-16 16-16l48 0z m-170-169l0-160 32 0 0 160z m-32 32l96 0 0-224-96 0z m192-160l-32 0 0-32 32 0z m-64 32l96 0 0-96-96 0z m32 96l0-32 32 0 0 32z m-32 32l96 0 0-96-96 0z"/>
<glyph glyph-name="p-shield-off" unicode="&#57398;" d="M240 481l-70-27c-9-3-18 1-21 10-3 8 1 17 10 20l75 29c4 1 8 1 12 0l192-72c6-3 10-9 10-15l0-169c0-17-3-35-8-52-3-9-12-13-20-11-9 3-13 12-11 20 5 14 7 29 7 44l0 157z m123-348c6 7 16 8 23 2 6-6 7-16 1-23-40-44-87-81-140-109-4-2-10-2-14 0-2 1-5 3-9 5-7 4-14 8-22 13-24 15-47 32-69 51-63 55-101 117-101 186l0 168c0 6 4 12 10 15l18 6c8 3 17-1 21-9 3-9-2-18-10-21l-7-3 0-156c0-58 34-113 91-162 20-18 42-34 63-48 9-5 16-9 22-12 46 25 88 58 123 97z m-398 377c-7 7-7 17 0 23 6 6 16 6 22 0l528-528c7-6 7-16 0-23-6-6-16-6-22 0z"/>
<glyph glyph-name="p-shield" unicode="&#57399;" d="M247 2c-4-3-10-3-14 0-2 1-5 2-9 4-7 4-14 9-22 14-24 14-47 31-69 50-63 55-101 117-101 186l0 168c0 7 4 13 10 15l192 72c4 1 8 1 12 0l192-72c6-2 10-8 10-15l0-168c0-69-38-131-101-186-22-19-45-36-69-50-8-5-15-10-22-14-4-2-7-3-9-4z m15 45c21 13 43 29 63 47 57 50 91 105 91 162l0 157-176 66-176-66 0-157c0-57 34-112 91-162 20-18 42-34 63-47 9-6 16-10 22-13 6 3 13 7 22 13z"/>
<glyph glyph-name="p-posts" unicode="&#57400;" d="M313 512c4 0 9-1 12-5l118-120c4-3 5-8 5-12l0-327c0-27-21-48-48-48l-320 0c-27 0-48 21-48 48l0 416c0 26 21 48 48 48z m103-152l-70 0c-27 0-48 21-48 48l0 72-218 0c-9 0-16-7-16-16l0-416c0-9 7-16 16-16l320 0c9 0 16 7 16 16z m-86 97l0-49c0-9 7-16 16-16l48 0z m-202-361l0 32 96 0 0-32z m0 64l0 32 96 0 0-32z m0 160l96 0 0-96-96 0z m128 0l96 0 0-96-96 0z m0-224l0 32 96 0 0-32z m0 64l0 32 96 0 0-32z"/>
<glyph glyph-name="p-home" unicode="&#57401;" d="M473 240c6-6 8-10 6-14-2-3-6-5-13-5 0 0-42 0-42 0 0 0 0-154 0-154 0-5 0-9 0-11-1-2-2-4-4-6-3-2-7-3-12-3 0 0-102 0-102 0 0 0 0 154 0 154 0 0-101 0-101 0 0 0 0-154 0-154 0 0-96 0-96 0-10 0-15 2-17 5-3 3-4 8-4 15 0 0 0 154 0 154 0 0-42 0-42 0-7 0-12 2-14 5-1 4 0 8 6 14 0 0 199 200 199 200 5 5 12 8 19 8 8 0 13-3 19-8 0 0 198-200 198-200"/>
<glyph glyph-name="p-gallery-alt" unicode="&#57402;" d="M313 512c4 0 9-1 12-5l118-120c4-3 5-8 5-12l0-327c0-27-21-48-48-48l-320 0c-27 0-48 21-48 48l0 416c0 26 21 48 48 48z m103-152l-70 0c-27 0-48 21-48 48l0 72-218 0c-9 0-16-7-16-16l0-416c0-9 7-16 16-16l320 0c9 0 16 7 16 16z m-86 97l0-49c0-9 7-16 16-16l48 0z m-106-185c0-27-21-48-48-48-27 0-48 21-48 48 0 27 21 48 48 48 27 0 48-21 48-48z m-128-208l0 64 64 64 64-32 112 96 48-64 0-128z"/>
<glyph glyph-name="p-gallery" unicode="&#57403;" d="M96 192l128 0 0-96-128 0z m160 0l128 0 0-96-128 0z m0 128l128 0 0-96-128 0z m-160 0l128 0 0-96-128 0z m217 192c4 0 9-1 12-5l118-120c4-3 5-8 5-12l0-327c0-27-21-48-48-48l-320 0c-27 0-48 21-48 48l0 416c0 26 21 48 48 48z m103-152l-70 0c-27 0-48 21-48 48l0 72-218 0c-9 0-16-7-16-16l0-416c0-9 7-16 16-16l320 0c9 0 16 7 16 16z m-86 97l0-49c0-9 7-16 16-16l48 0z"/>
<glyph glyph-name="p-data" unicode="&#57404;" d="M313 512c4 0 9-1 12-5l118-120c4-3 5-8 5-12l0-327c0-27-21-48-48-48l-320 0c-27 0-48 21-48 48l0 416c0 26 21 48 48 48z m103-152l-70 0c-27 0-48 21-48 48l0 72-218 0c-9 0-16-7-16-16l0-416c0-9 7-16 16-16l320 0c9 0 16 7 16 16z m-86 97l0-49c0-9 7-16 16-16l48 0z m-75-243l86 85c6 7 16 7 22 0 7-6 7-16 0-22l-96-97c-7-6-17-6-23 0l-40 40-65-65c-6-7-16-7-22 0-7 6-7 16 0 22l76 76c6 7 16 7 23 0z m36 58c-9 0-16 7-16 16 0 9 7 16 16 16l61 0c9 0 16-7 16-16l0-61c0-9-7-16-16-16-9 0-16 7-16 16l0 45z"/>
<glyph glyph-name="p-b" unicode="&#57406;" d="M313 512c4 0 9-1 12-5l118-120c4-3 5-8 5-12l0-327c0-27-21-48-48-48l-320 0c-27 0-48 21-48 48l0 416c0 26 21 48 48 48z m103-152l-70 0c-27 0-48 21-48 48l0 72-218 0c-9 0-16-7-16-16l0-416c0-9 7-16 16-16l320 0c9 0 16 7 16 16z m-86 97l0-49c0-9 7-16 16-16l48 0z m-127-228l50 0c9 0 16 2 22 6 6 4 9 11 9 21 0 5-1 9-3 13-2 3-5 6-8 7-3 2-7 4-11 4-4 1-8 1-12 1l-47 0z m-49 91l106 0c10 0 20-1 29-3 9-2 16-5 23-9 6-4 11-10 14-17 4-8 6-16 6-27 0-11-3-21-8-28-5-8-13-14-23-19 14-4 24-11 31-21 7-10 10-22 10-36 0-11-2-21-6-30-5-8-11-15-18-20-8-5-16-9-26-12-9-2-19-3-29-3l-109 0z m49-187l53 0c5 0 10 1 14 2 5 0 8 2 12 4 3 2 6 5 8 9 2 4 3 9 3 15 0 11-3 20-10 25-6 5-15 7-26 7l-54 0z"/>
<glyph glyph-name="p-virtual" unicode="&#57407;" d="M224 512l0-32-96 0 0 32z m32 0l58 0c4 0 8-2 11-5l118-120c3-3 5-7 5-11l0-16-32 0 0 9-109 111-51 0z m-160 0l0-32-16 0c-9 0-16-7-16-16l0-16-32 0 0 16c0 27 21 48 48 48z m64-512l0 32 96 0 0-32z m-32 0l-48 0c-21 0-39 13-45 32l93 0z m256 0l-96 0 0 32 96 0z m32 3l0 93 32 0 0-48c0-21-13-39-32-45z m-384 413l32 0 0-96-32 0z m416-96l0-64-32 0 0 64z m0-96l0-96-32 0 0 96z m-416-160l0 96 32 0 0-96z m0 128l0 96 32 0 0-96z m298 265l0-49c0-9 7-16 16-16l48 0z m-5 50l118-120c10-10 3-27-11-27l-86 0c-27 0-48 21-48 48l0 88c0 14 17 21 27 11z"/>
<glyph glyph-name="p-alt-2" unicode="&#57408;" d="M313 512c4 0 9-1 12-5l118-120c4-3 5-8 5-12l0-327c0-27-21-48-48-48l-320 0c-27 0-48 21-48 48l0 416c0 26 21 48 48 48z m103-152l-70 0c-27 0-48 21-48 48l0 72-218 0c-9 0-16-7-16-16l0-416c0-9 7-16 16-16l320 0c9 0 16 7 16 16z m-86 97l0-49c0-9 7-16 16-16l48 0z m-234-329l288 0 0-64-288 0z m0 96l128 0 0-64-128 0z m160 0l128 0 0-64-128 0z m-160 96l288 0 0-64-288 0z"/>
<glyph glyph-name="p-alt-3" unicode="&#57409;" d="M313 512c4 0 9-1 12-5l118-120c4-3 5-8 5-12l0-327c0-27-21-48-48-48l-320 0c-27 0-48 21-48 48l0 416c0 26 21 48 48 48z m103-152l-70 0c-27 0-48 21-48 48l0 72-218 0c-9 0-16-7-16-16l0-416c0-9 7-16 16-16l320 0c9 0 16 7 16 16z m-86 97l0-49c0-9 7-16 16-16l48 0z m-234-361l0 32 128 0 0-32z m0 64l0 32 128 0 0-32z m0 160l288 0 0-96-288 0z m160-224l0 32 128 0 0-32z m0 64l0 32 128 0 0-32z"/>
<glyph glyph-name="p-profile" unicode="&#57410;" d="M80 480c-9 0-16-7-16-16l0-416c0-9 7-16 16-16l320 0c9 0 16 7 16 16l0 416c0 9-7 16-16 16z m0 32l320 0c27 0 48-21 48-48l0-416c0-27-21-48-48-48l-320 0c-27 0-48 21-48 48l0 416c0 27 21 48 48 48z m264-257l-54 26-23 10c10 7 18 17 24 28 4 9 6 19 6 31 0 6 0 12-2 18-7 27-29 48-55 48-26 0-47-20-55-47-1-6-2-13-2-19 0-12 2-23 7-33 5-11 14-20 24-26l-22-10-56-26c-5-2-8-8-8-14l0-38c0-8 5-15 13-15l198 0c8 0 13 7 13 15l0 38c0 6-3 12-8 14z m-184-127l160 0 0-32-160 0z"/>
<glyph glyph-name="p-attachment" unicode="&#57411;" d="M461 178c6 6 16 6 23 0 6-6 6-16 0-22l-140-140c-42-42-111-42-152 0-42 41-42 110 0 152l140 140c30 30 78 30 108 0 30-31 30-79 0-109l-140-140c-18-19-47-19-66 0-18 18-18 47 0 65l130 130c6 6 16 6 22 0 7-7 7-17 0-23l-129-129c-6-6-6-15 0-21 6-5 15-5 21 0l140 140c17 18 17 46 0 64-18 17-46 17-64 0l-140-140c-29-30-29-77 0-107 30-29 77-29 107 0z m-13 110l-32 0 0 81-109 111-227 0c-9 0-16-7-16-16l0-416c0-9 7-16 16-16l144 0 0-32-144 0c-27 0-48 21-48 48l0 416c0 27 21 48 48 48l234 0c4 0 8-2 11-5l118-120c3-3 5-7 5-11z m-118 169l0-49c0-9 7-16 16-16l48 0z m-5 50l118-120c10-10 3-27-11-27l-86 0c-27 0-48 21-48 48l0 88c0 14 17 21 27 11z"/>
<glyph glyph-name="p-download" unicode="&#57412;" d="M313 512c4 0 9-1 12-5l118-120c4-3 5-8 5-12l0-327c0-27-21-48-48-48l-320 0c-27 0-48 21-48 48l0 416c0 26 21 48 48 48z m103-152l-70 0c-27 0-48 21-48 48l0 72-218 0c-9 0-16-7-16-16l0-416c0-9 7-16 16-16l320 0c9 0 16 7 16 16z m-86 97l0-49c0-9 7-16 16-16l48 0z m-90-306l82 82c6 6 16 6 23 0 6-7 6-17 0-23l-94-93c-6-7-16-7-22 0l-94 93c-6 6-6 16 0 23 7 6 17 6 23 0z m16-23c0-9-7-16-16-16-9 0-16 7-16 16l0 224c0 9 7 16 16 16 9 0 16-7 16-16z"/>
<glyph glyph-name="p-search" unicode="&#57413;" d="M448 288l-32 0 0 81-109 111-227 0c-9 0-16-7-16-16l0-416c0-9 7-16 16-16l144 0 0-32-144 0c-27 0-48 21-48 48l0 416c0 27 21 48 48 48l234 0c4 0 8-2 11-5l118-120c3-3 5-7 5-11z m-118 169l0-49c0-9 7-16 16-16l48 0z m-5 50l118-120c10-10 3-27-11-27l-86 0c-27 0-48 21-48 48l0 88c0 14 17 21 27 11z m-3-479c-72 0-130 59-130 130 0 72 58 130 130 130 71 0 130-58 130-130 0-71-59-130-130-130z m0 32c54 0 98 44 98 98 0 54-44 98-98 98-54 0-98-44-98-98 0-54 44-98 98-98z m153-33c7-6 7-16 0-22-6-7-16-7-22 0l-62 62c-6 6-6 16 0 22 6 6 16 6 22 0z"/>
<glyph glyph-name="p-mail" unicode="&#57414;" d="M479 375c0 0 0-1 0-1l0-249c0-32-26-58-58-58l-333 0c-31 0-57 26-57 58l0 249c0 0 0 1 0 1 0 31 26 57 57 57l333 0c32 0 58-26 58-57z m-33 7c-4 10-14 18-25 18l-333 0c-11 0-21-8-24-18l191-134z m1-38l-183-128c-6-4-13-4-19 0l-182 128 0-219c0-14 11-26 25-26l333 0c14 0 26 12 26 26z"/>
<glyph glyph-name="p-map" unicode="&#57415;" d="M324 56l-143 71-125-71c-11-6-24 2-24 14l0 302c0 6 3 11 8 14l132 76c3 1 5 2 8 2 3 0 6-1 8-2l143-71 125 71c11 6 24-2 24-14l0-303c0-5-3-11-8-13l-132-76c-3-1-5-2-8-2-3 0-6 0-8 2z m-8 306l-120 60 0-267 120-59z m32 1l0-266 100 58 0 265z m-184 57l-100-57 0-266 100 58z"/>
<glyph glyph-name="p-redirect" unicode="&#57416;" d="M384 224l96-64-96-64z m-32 80l0-32-144 0c-18 0-32-14-32-32l0-32c0-18 14-32 32-32l176 0 0-32-176 0c-35 0-64 29-64 64l0 32c0 35 29 64 64 64z m-27 203l118-120c4-3 5-8 5-12 0-53 0-92 0-119 0-43 0-107 0-192 0-3 0-9 0-16 0-27-21-48-48-48l-320 0c-27 0-48 21-48 48l0 416c0 26 21 48 48 48l233 0c4 0 9-1 12-5z m91-147l-70 0c-27 0-48 21-48 48l0 72-218 0c-9 0-16-7-16-16l0-416c0-9 7-16 16-16l320 0c9 0 16 7 16 16l0 16 32 0 0 192-32 0z m-86 97l0-49c0-9 7-16 16-16l48 0z"/>
<glyph glyph-name="p-post" unicode="&#57417;" d="M160 384l0-64 64 0 0 64z m-32 32l128 0 0-128-128 0z m0-192l0 32 192 0 0-32z m0-64l0 32 128 0 0-32z m128-160l224 208-64 64-224-208 0-64z m69 507l118-120c4-3 5-8 5-12 0-53 0-92 0-119 0-43 0-107 0-192 0-3 0-9 0-16 0-27-21-48-48-48l-320 0c-27 0-48 21-48 48l0 416c0 26 21 48 48 48l233 0c4 0 9-1 12-5z m91-147l-70 0c-27 0-48 21-48 48l0 72-218 0c-9 0-16-7-16-16l0-416c0-9 7-16 16-16l80 0 0-32 175 0 0 32 65 0c9 0 16 7 16 16l0 65 32 0 0 191-32 0z m-86 97l0-49c0-9 7-16 16-16l48 0z"/>
<glyph glyph-name="p-shop" unicode="&#57418;" d="M477 413c0 0 0 0 0 0 2-3 3-6 3-9l0-324c0-34-30-64-64-64l-320 0c-34 0-64 30-64 64l0 324c0 3 1 6 3 9 0 0 0 0 0 0l70 93c3 4 7 6 12 6l278 0c5 0 9-2 12-6z m-45 7l-45 60-262 0-45-60z m16-32l-384 0 0-308c0-17 15-32 32-32l320 0c17 0 32 15 32 32z m-116-77c0 9 8 16 16 16 9 0 16-7 16-16 0-60-48-108-108-108-60 0-108 48-108 108 0 9 7 16 16 16 8 0 16-7 16-16 0-42 34-76 76-76 42 0 76 34 76 76z"/>
<glyph glyph-name="p-book" unicode="&#57419;" d="M416 160l0 320-308 0c-24 0-44-20-44-44l0-289c12 8 26 13 42 13z m0-32l-310 0c-23 0-42-19-42-42l0-10c0-24 20-44 44-44l308 0z m-308 384l324 0c9 0 16-7 16-16l0-480c0-9-7-16-16-16l-324 0c-42 0-76 34-76 76l0 360c0 42 34 76 76 76z"/>
<glyph glyph-name="p-package" unicode="&#57420;" d="M428 376l-161 80c-7 4-15 4-22 0l-57-28 172-86z m20-26l-81-40c0 0 0 0 0 0l-95-48 0-214 162 81c8 4 14 13 14 23z m-208-88l-176 88 0-198c0-10 5-19 14-23l162-81z m-156 114l172-86 68 34-172 86z m59 65c1 1 2 2 3 2l84 42c17 8 35 8 52 0l166-83c20-10 32-30 32-52l0-198c0-22-12-42-32-52l-166-83c-17-8-36-8-52 0l-166 83c-20 10-32 30-32 52l0 198c0 22 12 42 32 52z"/>
<glyph glyph-name="p-blocked" unicode="&#57405;" d="M313 512c4 0 9-1 12-5l118-120c4-3 5-8 5-12l0-327c0-27-21-48-48-48l-320 0c-27 0-48 21-48 48l0 416c0 26 21 48 48 48z m103-152l-70 0c-27 0-48 21-48 48l0 72-218 0c-9 0-16-7-16-16l0-416c0-9 7-16 16-16l320 0c9 0 16 7 16 16z m-86 97l0-49c0-9 7-16 16-16l48 0z m-149-333c17-12 37-18 59-18 57 0 102 45 102 102 0 22-6 42-18 59z m-28 30l141 141c-16 10-34 15-54 15-57 0-102-45-102-102 0-20 5-38 15-54z m87-90c-80 0-144 64-144 144 0 80 64 144 144 144 80 0 144-64 144-144 0-80-64-144-144-144z"/>
<glyph glyph-name="circle-star" unicode="&#57421;" d="M256 484c-126 0-228-102-228-228 0-126 102-228 228-228 126 0 228 102 228 228 0 126-102 228-228 228z m85-347l-85 44-85-44 17 94-68 66 94 14 42 85 42-85 94-14-68-66z"/>
<glyph glyph-name="sun" unicode="&#57422;" d="M382 256c0-70-56-126-126-126-70 0-126 56-126 126 0 70 56 126 126 126 70 0 126-56 126-126z m-126 177c9 0 17-1 25-2l0 53-50 0 0-53c8 1 16 2 25 2z m-106-35l-37 37-36-36 37-37c11 13 23 25 36 36z m248-36l37 37-36 36-37-37c13-11 25-23 36-36z m-142-283c-9 0-17 1-25 2l0-53 50 0 0 53c-8-1-16-2-25-2z m106 35l37-37 36 36-37 37c-11-13-23-25-36-36z m-283 142c0 9 1 17 2 25l-53 0 0-50 53 0c-1 8-2 16-2 25z m352 25c1-8 2-16 2-25 0-9-1-17-2-25l53 0 0 50z m-317-131l-37-37 36-36 37 37c-13 11-25 23-36 36z"/>
<glyph glyph-name="accessibility" unicode="&#57423;" d="M256 484c-126 0-228-102-228-228 0-126 102-228 228-228 126 0 228 102 228 228 0 126-102 228-228 228z m-3-46c16 0 29-13 29-29 0-16-13-30-29-30-17 0-30 14-30 30 0 16 13 29 30 29z m127-95l-87-11 0-87 42-142c2-9-3-18-12-20-9-2-18 3-20 12l-44 128-13 0-40-131c-3-9-13-13-21-9-9 3-14 13-11 21l37 139 0 89-81 11c-8 1-14 8-13 16 1 9 8 15 17 14l98-8 42 0 105 9c8 0 15-7 15-15 1-8-6-15-14-16z"/>
<glyph glyph-name="plus-thin" unicode="&#57424;" d="M275 237l149-1c8 1 12 1 16 4 10 7 10 18 4 29-2 2-2 2-4 4-4 3-10 6-14 6l-151-3 3 152c-3 5-5 12-7 13-6 11-17 11-28 4-2-2-2-2-4-4-4-3-4-8-7-13l3-152-151 3c-6-3-12-5-14-6-8-9-10-18-2-26 2-2 2-2 5-4 3-4 9-7 13-7l149 1 0-149c0-5 2-10 6-14 6-10 18-10 26-2 0 0 2 2 2 2 4 4 7 9 7 14z"/>
<glyph glyph-name="dashboard" unicode="&#57425;" d="M110 183c0 10-4 19-11 26-7 7-16 10-26 10-10 0-19-3-26-10-7-7-10-16-10-26 0-10 3-19 10-26 7-7 16-11 26-11 10 0 19 4 26 11 7 7 11 16 11 26z m55 128c0 10-4 19-11 26-7 7-16 10-26 10-10 0-19-3-26-10-7-7-11-16-11-26 0-10 4-19 11-26 7-7 16-11 26-11 10 0 19 4 26 11 7 7 11 16 11 26z m122-138l29 110c1 5 0 9-2 13-3 5-7 8-11 9-5 1-10 1-14-2-5-3-7-6-9-11l-29-109c-11-1-21-6-30-13-9-7-15-17-18-28-4-15-2-29 6-42 7-13 18-21 33-25 15-4 29-2 42 6 13 7 21 18 25 33 3 11 3 23-2 33-4 11-11 20-20 26z m188 10c0 10-3 19-10 26-7 7-16 10-26 10-10 0-19-3-26-10-7-7-11-16-11-26 0-10 4-19 11-26 7-7 16-11 26-11 10 0 19 4 26 11 7 7 10 16 10 26z m-182 183c0 10-4 18-11 26-7 7-16 10-26 10-10 0-19-3-26-10-7-8-11-16-11-26 0-10 4-19 11-26 7-7 16-11 26-11 10 0 19 4 26 11 7 7 11 16 11 26z m128-55c0 10-4 19-11 26-7 7-16 10-26 10-10 0-19-3-26-10-7-7-11-16-11-26 0-10 4-19 11-26 7-7 16-11 26-11 10 0 19 4 26 11 7 7 11 16 11 26z m91-128c0-50-13-96-40-138-4-6-9-8-16-8l-400 0c-7 0-12 2-16 8-27 42-40 88-40 138 0 35 7 68 20 99 14 32 32 59 55 82 23 23 50 41 82 55 31 13 64 20 99 20 35 0 68-7 99-20 32-14 59-32 82-55 23-23 41-50 55-82 13-31 20-64 20-99z"/>
<glyph glyph-name="block-embed" unicode="&#57426;" d="M73 457c-10 0-18-8-18-18l0-366c0-10 8-18 18-18l366 0c10 0 18 8 18 18l0 366c0 10-8 18-18 18z m0 18l366 0c20 0 36-16 36-36l0-366c0-20-16-36-36-36l-366 0c-20 0-36 16-36 36l0 366c0 20 16 36 36 36z m159-153c0-1 0-3-2-4l-71-66 71-68c2 0 2-2 2-3 0-2 0-3-2-4l-9-9c-1-1-3-2-4-2-2 0-3 1-5 2l-85 79c-1 2-2 3-2 5 0 1 1 2 2 3l85 79c2 2 3 2 5 2 1 0 3 0 4-2l9-8c2-1 2-2 2-4z m48 0c0-1 1-3 2-4l71-66-71-68c-1 0-2-2-2-3 0-2 1-3 2-4l9-9c1-1 3-2 4-2 2 0 3 1 5 2l85 79c1 2 2 3 2 5 0 1-1 2-2 3l-85 79c-2 2-3 2-5 2-1 0-3 0-4-2l-9-8c-1-1-2-2-2-4z"/>
<glyph glyph-name="minus-circle" unicode="&#57427;" d="M384 238l0 36c0 5-2 10-5 13-4 4-8 6-13 6l-220 0c-5 0-9-2-13-6-3-3-5-8-5-13l0-36c0-5 2-10 5-13 4-4 8-6 13-6l220 0c5 0 9 2 13 6 3 3 5 8 5 13z m91 18c0-40-9-77-29-110-20-34-46-60-80-80-33-20-70-29-110-29-40 0-77 9-110 29-34 20-60 46-80 80-20 33-29 70-29 110 0 40 9 77 29 110 20 34 46 60 80 80 33 20 70 29 110 29 40 0 77-9 110-29 34-20 60-46 80-80 20-33 29-70 29-110z"/>
<glyph glyph-name="check-circle" unicode="&#57428;" d="M403 302c0 6-1 10-5 13l-26 26c-3 4-8 6-13 6-5 0-9-2-12-6l-117-116-65 64c-3 4-7 6-12 6-5 0-10-2-13-6l-26-25c-4-4-5-8-5-13 0-6 1-10 5-13l103-104c4-3 8-5 13-5 5 0 10 2 13 5l155 155c4 4 5 8 5 13z m72-46c0-40-9-77-29-110-20-34-46-60-80-80-33-20-70-29-110-29-40 0-77 9-110 29-34 20-60 46-80 80-20 33-29 70-29 110 0 40 9 77 29 110 20 34 46 60 80 80 33 20 70 29 110 29 40 0 77-9 110-29 34-20 60-46 80-80 20-33 29-70 29-110z"/>
<glyph glyph-name="minus" unicode="&#57429;" d="M389 282c10 0 15-9 15-26 0-17-5-26-15-26 0 0-266 0-266 0-10 0-15 9-15 26 0 17 5 26 15 26 0 0 266 0 266 0"/>
<glyph glyph-name="plus-1" unicode="&#57430;" d="M389 282c10 0 15-9 15-26 0-17-5-26-15-26 0 0-107 0-107 0 0 0 0-107 0-107 0-10-9-15-26-15-17 0-26 5-26 15 0 0 0 107 0 107 0 0-107 0-107 0-10 0-15 9-15 26 0 17 5 26 15 26 0 0 107 0 107 0 0 0 0 107 0 107 0 10 9 15 26 15 17 0 26-5 26-15 0 0 0-107 0-107 0 0 107 0 107 0"/>
<glyph glyph-name="right-thin" unicode="&#57431;" d="M385 128c0 0 0 83 0 83 0 0-380 0-380 0 0 0 0 91 0 91 0 0 380 0 380 0 0 0 0 82 0 82 0 0 122-128 122-128 0 0-122-128-122-128"/>
<glyph glyph-name="left-thin" unicode="&#57432;" d="M128 128c0 0-123 128-123 128 0 0 123 128 123 128 0 0 0-82 0-82 0 0 379 0 379 0 0 0 0-91 0-91 0 0-379 0-379 0 0 0 0-83 0-83"/>
<glyph glyph-name="down-thin" unicode="&#57433;" d="M384 128c0 0-128-123-128-123 0 0-128 123-128 123 0 0 83 0 83 0 0 0 0 379 0 379 0 0 90 0 90 0 0 0 0-379 0-379 0 0 83 0 83 0"/>
<glyph glyph-name="up-thin" unicode="&#57434;" d="M384 385c0 0-83 0-83 0 0 0 0-380 0-380 0 0-90 0-90 0 0 0 0 380 0 380 0 0-83 0-83 0 0 0 128 122 128 122 0 0 128-122 128-122"/>
<glyph glyph-name="attention" unicode="&#91;" d="M256 484c-126 0-228-102-228-228 0-126 102-228 228-228 126 0 228 102 228 228 0 126-102 228-228 228z m27-357c-7-7-16-11-25-11-10 0-19 4-25 11-7 6-11 15-11 25 0 9 4 18 11 25 13 13 37 13 50 0 7-7 10-16 10-25 1-10-3-19-10-25z m16 224l-13-118c-1-16-15-27-31-26-14 2-24 12-25 26l-13 118c-2 23 14 43 37 46 23 2 43-15 45-38 1-2 1-5 0-8z"/>
<glyph glyph-name="integration" unicode="&#57435;" d="M467 257l0 121c0 10-8 19-19 19l-95 0 0 77-192 0 0-77-97 0c-11 0-19-9-19-19l0-121c-26-8-45-33-45-61 0-36 29-64 64-64 35 0 64 28 64 64 0 28-19 53-45 61l0 101 78 0 0-76 77 0-1-118c-26-9-45-33-45-62 0-35 29-64 64-64 35 0 64 29 64 64 0 29-19 53-45 61l1 119 77 0 0 76 76 0 0-101c-26-8-45-33-45-61 0-36 29-64 64-64 35 0 64 28 64 64 0 28-19 53-45 61z m-377-61c0-14-12-26-26-26-14 0-26 12-26 26 0 14 12 25 26 25 14 0 26-11 26-25z m192-94c0-14-12-25-26-25-14 0-26 11-26 25 0 15 12 26 26 26 14 0 26-11 26-26z m33 218l-115 0 0 115 115 0z m133-150c-14 0-26 12-26 26 0 14 12 25 26 25 14 0 26-11 26-25 0-14-12-26-26-26z"/>
<glyph glyph-name="lamp" unicode="&#57436;" d="M184 20c0 0 0 54 0 54 0 0 144 0 144 0 0 0 0-54 0-54-24-14-48-21-73-20-23-1-47 6-71 20m141 84c0 0-138 0-138 0 0 25-6 49-19 72-12 23-25 43-40 58-14 15-26 34-37 57-11 23-16 47-14 71 3 41 19 77 48 106 30 29 73 44 130 44 58 0 102-15 131-44 29-29 45-65 49-106 1-20-2-39-9-57-6-18-15-35-26-50-11-14-22-29-33-43-12-14-21-31-30-49-8-19-12-38-12-59m-193 254c-2-1-2-4 0-10 1-5 1-9 1-10-1-1 0-5 2-10 3-5 4-8 3-9 0-1 1-4 4-9 3-5 5-9 6-10 1-1 3-5 7-10 3-5 6-8 7-9 1-2 3-5 7-11 5-6 7-10 9-12 30-42 49-78 57-108 0 0 42 0 42 0 8 32 27 68 57 108 2 2 6 8 13 18 7 10 12 16 13 18 1 3 4 8 9 15 4 8 7 13 8 17 1 4 2 9 3 14 1 6 1 12 0 18-5 67-47 101-125 101-77 0-118-34-123-101"/>
<glyph glyph-name="flag" unicode="&#57437;" d="M91 439c0-14-6-24-18-32l0-361c0-3-1-5-3-7-1-2-4-2-6-2l-18 0c-3 0-5 0-7 2-2 2-2 4-2 7l0 361c-13 8-19 18-19 32 0 10 4 19 11 26 7 7 16 10 26 10 10 0 19-3 26-10 7-7 10-16 10-26z m421-18l0-218c0-5-1-9-4-11-2-3-6-6-11-8-41-22-76-33-105-33-12 0-24 2-36 6-11 4-22 9-31 14-8 5-19 9-33 13-13 4-26 7-40 7-37 0-81-14-133-42-3-2-6-3-9-3-5 0-10 2-13 6-4 3-6 8-6 13l0 212c0 6 3 11 9 15 4 3 12 7 23 13 45 22 85 34 120 34 21 0 40-3 57-8 18-6 39-14 63-26 7-3 15-5 25-5 10 0 21 2 34 6 12 4 22 8 31 13 9 5 17 10 25 14 8 4 13 6 16 6 5 0 9-2 13-6 3-3 5-7 5-12z"/>
<glyph glyph-name="globe-1" unicode="&#82;" d="M256 502c68 0 126-24 174-72 48-49 72-106 72-174 0-68-24-126-72-174-48-48-106-72-174-72-68 0-125 24-174 72-48 48-72 106-72 174 0 68 24 125 72 174 49 48 106 72 174 72m210-246c0 45-13 86-40 122-27 37-61 62-103 77-7-9-9-14-9-17 2-13 5-21 10-26 4-4 9-5 15-3 0 0 16 6 16 6 0 0 4 0 11 1 7-8 7-16 0-24-8-8-16-18-23-29-8-11-8-24-1-39 12-22 28-33 49-33 10-1 17-7 22-19 5-11 8-22 9-33 3-28 1-52-7-72-8-15-5-28 7-39 29 38 44 81 44 128m-239 207c-38-5-72-19-102-43-29-24-51-54-65-89 2 0 6-1 12-1 5-1 10-1 14-2 4 0 9-1 13-2 5-1 9-2 13-4 3-2 5-4 6-7 1-4-1-11-7-23-7-11-10-21-10-31 0-10 7-20 20-29 13-8 19-16 19-23 0-10 2-21 4-35 3-14 4-21 4-22 0-5 7-14 19-28 12-14 21-22 27-22 3 0 5 4 5 12 1 7 0 16-1 27-1 11-1 18-1 21 0 11 2 23 7 38 4 14 14 26 30 36 16 9 25 17 28 23 6 12 7 22 5 31-3 10-6 17-9 22-3 6-9 11-17 15-9 4-16 7-21 8-6 2-12 4-19 5-7 1-11 2-12 2-5 2-12 3-21 4-9 0-15-1-18-2-4-1-9 1-14 6-6 5-9 10-9 15 0 3 3 8 8 13 5 6 11 12 18 19 6 7 11 12 14 16 3 4 6 8 9 10 3 3 6 6 11 9 4 3 9 6 14 10 1 2 5 5 13 9 7 5 11 8 13 12m-37-407c23-7 45-10 66-10 44 0 82 12 116 35-9 15-29 21-61 17-8 0-19-3-33-8-14-6-22-8-24-9-25-6-38-8-39-8-4-1-8-3-13-7-5-5-9-8-12-10"/>
<glyph glyph-name="shield" unicode="&#117;" d="M384 238l0 183-128 0 0-325c23 12 43 25 61 39 45 35 67 69 67 103z m55 219l0-219c0-17-3-33-10-49-6-16-14-30-23-43-10-12-21-24-34-36-13-12-25-22-36-30-11-8-23-15-35-22-12-7-20-12-25-14-5-2-10-4-13-6-2-1-4-1-7-1-3 0-5 0-7 1-3 2-8 4-13 6-5 2-13 7-25 14-12 7-24 14-35 22-11 8-23 18-36 30-13 12-24 24-34 36-9 13-17 27-23 43-7 16-10 32-10 49l0 219c0 5 2 9 6 13 3 4 7 5 12 5l330 0c5 0 9-1 12-5 4-4 6-8 6-13z"/>
<glyph glyph-name="clone" unicode="&#57438;" d="M475 46l0 311c0 2 0 4-2 6-2 2-4 3-7 3l-311 0c-2 0-4-1-6-3-2-2-3-4-3-6l0-311c0-3 1-5 3-7 2-2 4-2 6-2l311 0c3 0 5 0 7 2 2 2 2 4 2 7z m37 311l0-311c0-13-4-24-13-33-9-9-20-13-33-13l-311 0c-12 0-23 4-32 13-9 9-13 20-13 33l0 311c0 12 4 23 13 32 9 9 20 13 32 13l311 0c13 0 24-4 33-13 9-9 13-20 13-32z m-110 109l0-45-36 0 0 45c0 3-1 5-3 7-2 2-4 2-6 2l-311 0c-3 0-5 0-7-2-2-2-2-4-2-7l0-311c0-2 0-4 2-6 2-2 4-3 7-3l45 0 0-36-45 0c-13 0-24 4-33 13-9 9-13 20-13 32l0 311c0 13 4 24 13 33 9 9 20 13 33 13l311 0c12 0 23-4 32-13 9-9 13-20 13-33z"/>
<glyph glyph-name="block-back" unicode="&#57352;" d="M310 348c0-2 0-3-2-5l-82-80 82-81c2 0 2-2 2-4 0-2 0-3-2-5l-10-10c-2-1-4-2-5-2-2 0-4 1-5 2l-98 95c-1 2-2 3-2 5 0 2 1 3 2 4l98 95c1 2 3 3 5 3 1 0 3-1 5-3l10-10c2-1 2-2 2-4z m-237 109c-10 0-18-8-18-18l0-366c0-10 8-18 18-18l366 0c10 0 18 8 18 18l0 366c0 10-8 18-18 18z m0 18l366 0c20 0 36-16 36-36l0-366c0-20-16-36-36-36l-366 0c-20 0-36 16-36 36l0 366c0 20 16 36 36 36z"/>
<glyph glyph-name="block-a" unicode="&#57439;" d="M439 475c20 0 36-16 36-36l0-366c0-20-16-36-36-36l-366 0c-20 0-36 16-36 36l0 366c0 20 16 36 36 36z m0-18l-366 0c-10 0-18-8-18-18l0-366c0-10 8-18 18-18l366 0c10 0 18 8 18 18l0 366c0 10-8 18-18 18z m-157-91l83-224-51 0-17 50-84 0-17-50-50 0 85 224z m-26-56l0 0-30-82 58 0z"/>
<glyph glyph-name="block-a-b" unicode="&#57440;" d="M439 475c20 0 36-16 36-36l0-366c0-20-16-36-36-36l-366 0c-20 0-36 16-36 36l0 366c0 20 16 36 36 36z m0-18l-366 0c-10 0-18-8-18-18l0-366c0-10 8-18 18-18l366 0c10 0 18 8 18 18l0 366c0 10-8 18-18 18z m-140-190c6 0 12-1 18-2 5-1 10-3 13-6 4-2 7-6 9-10 2-4 3-10 3-16 0-7-1-13-4-17-3-5-8-9-14-12 8-2 15-6 19-12 4-7 6-14 6-22 0-7-1-13-4-18-3-5-6-10-11-13-4-3-10-5-15-7-6-1-12-2-18-2l-67 0 0 137z m-2-76l-33 0 0-38 33 0c3 0 5 1 8 1 3 1 5 2 7 3 2 1 4 3 5 5 1 3 2 6 2 9 0 7-2 12-6 15-4 3-9 5-16 5z m-4 52l-29 0 0-32 31 0c5 0 10 2 13 4 4 3 5 7 5 13 0 3 0 5-1 8-2 2-3 3-5 4-2 1-4 2-7 3-2 0-5 0-7 0z m-46 141l40-106-81 0-11-31-30 0 51 137z m-15-34l-1 0-18-50 36 0z"/>
<glyph glyph-name="block-analytics" unicode="&#57441;" d="M439 475c20 0 36-16 36-36l0-366c0-20-16-36-36-36l-366 0c-20 0-36 16-36 36l0 366c0 20 16 36 36 36z m0-18l-366 0c-10 0-18-8-18-18l0-366c0-10 8-18 18-18l366 0c10 0 18 8 18 18l0 366c0 10-8 18-18 18z m-28-356l-310 0 0 180c0 5 0 8 2 11 2 3 4 6 7 7 3 2 6 3 11 3l50 0c5 0 8-1 11-3 4-1 6-4 8-7 1-3 2-6 2-11l0-162 18 0 0 107c0 4 1 7 2 9l1 2c1 3 4 6 7 8 3 1 6 2 11 2l50 0c5 0 8-1 11-2 3-2 6-5 7-8 2-3 3-6 3-11l0-107 18 0 0 70c0 4 0 7 1 10l1 2c2 3 4 5 8 7 3 2 6 2 11 2l50 0c5 0 8 0 11-2 3-2 5-4 7-7 2-3 2-6 2-12z m-239 182l-52 0-1 0c0 0 0 0 0-1l0-163 55 0 0 162 0 2z m110-54l-52 0-1 0c0-1 0-1 0-2l0-108 54 0 0 107 0 3z m110-37l-52 0-2 0c0 0 0-1 0-1l0-72 55 0 0 70 0 3z m-224 218l1 0 53-15c5-1 8-6 6-11-1-5-5-7-9-7l-2 0-32 10c44-82 95-108 217-108 5 0 9-4 9-9 0-5-4-9-9-9-128 0-185 29-233 116l-9-31c-1-4-5-7-9-6l-2 0c-4 1-7 5-6 10l0 1 15 53c1 4 5 7 10 6z"/>
<glyph glyph-name="block-user-3" unicode="&#57442;" d="M439 475c20 0 36-16 36-36l0-366c0-20-16-36-36-36l-366 0c-20 0-36 16-36 36l0 366c0 20 16 36 36 36z m0-18l-366 0c-10 0-18-8-18-18l0-366c0-10 8-18 18-18l366 0c10 0 18 8 18 18l0 366c0 10-8 18-18 18z m-128-292l0-19-110 0 0 19z m-55 213c17 0 31-14 36-32 1-4 1-7 1-11 0-8-1-14-4-20-3-7-7-13-13-17l-2-1 15-7 35-17c3-2 5-4 5-8l0-1 0-40c0-5-3-9-7-9l-1-1-130 0c-4 0-7 4-8 8l0 2 0 40c0 3 1 6 4 8l1 1 37 17 14 6c-7 4-12 10-16 17-3 7-4 14-4 22 0 4 0 8 1 12 5 18 19 31 36 31z"/>
<glyph glyph-name="block-attachment" unicode="&#57443;" d="M439 475c20 0 36-16 36-36l0-366c0-20-16-36-36-36l-366 0c-20 0-36 16-36 36l0 366c0 20 16 36 36 36z m0-18l-366 0c-10 0-18-8-18-18l0-366c0-10 8-18 18-18l366 0c10 0 18 8 18 18l0 366c0 10-8 18-18 18z m-101-107c20-20 20-54 0-74l-96-96c-12-12-32-12-45 0-12 13-12 33 0 45l88 88c5 5 12 5 16 0 4-4 4-11 0-15l-88-88c-4-4-4-10 0-14 3-4 10-4 14 0l95 95c12 12 12 32 0 44-12 12-31 12-43 0l-96-96c-20-20-20-53 0-73 20-20 53-20 73 0l96 96c4 4 11 4 15 0 4-4 4-11 0-15l-95-96c-29-29-76-29-104 0-29 29-29 75 0 104l95 95c21 21 54 21 75 0z"/>
<glyph glyph-name="block-layout-2" unicode="&#57444;" d="M457 238c10 0 18-8 18-19l0-164c0-10-8-18-18-18l-164 0c-11 0-19 8-19 18l0 164c0 11 8 19 19 19z m-238 0c11 0 19-8 19-19l0-164c0-10-8-18-19-18l-164 0c-10 0-18 8-18 18l0 164c0 11 8 19 18 19z m238-19l-164 0 0-164 164 0z m-238 0l-164 0 0-164 164 0z m238 256c10 0 18-8 18-18l0-164c0-11-8-19-18-19l-164 0c-11 0-19 8-19 19l0 164c0 10 8 18 19 18z m-238 0c11 0 19-8 19-18l0-164c0-11-8-19-19-19l-164 0c-10 0-18 8-18 19l0 164c0 10 8 18 18 18z m238-18l-164 0 0-164 164 0z m-238 0l-164 0 0-164 164 0z"/>
</font>
</defs>
</svg>
